На цепи / Chained ( Дженнифер Чэмберс Линч / Jennifer Chambers Lynch)[2012 г., ужасы, триллер, BDRip 720p ] MVO Baibako + Original + Sub

Ответить на тему
 
Автор
Сообщение

awk05 ®

Пол:

Стаж: 8 лет 10 месяцев

Сообщений: 1334

Репутация: 278 [+] [-]

Откуда: Западная Украина Ривне

Пост 04-Авг-2014 18:17

[Цитировать] 

-- На цепи / Chained-- Год выхода: 2012
Жанр: Триллер, ужасы
Страна: Канада / Envision Media Arts, Myriad Pictures Inc., RGB Productions
Продолжительность: 01:34:17--Перевод: Профессиональный многоголосый (Baibako)
Перевод: Lub_a
Озвучка: Татьяна Оболевич, Лира Грим, Дим Димыч и Сергей Корчак
Сведение: Vitall Digitall--Субтитры: Русские, английские--Режиссер: Дженнифер Чэмберс Линч / Jennifer Chambers Lynch --
В ролях: Винсент Д’Онофрио (Bob), Имон Фэррен (Rabbit), Эван Бёрд (Younger Rabbit), Джулия Ормонд (Sarah Fittler), Конор Лесли (Angie), Джейк Уэбер (Brad Fittler), Джина Филипс (Marie), Дэниэл Маслани (Young Bob), Бенжамин ДеУолт (Son), Линдон Брэй ( Nasty Father), Майкл Маслани (Young Brad), Кейт Хэрриот (The Runner), Александр Дорксен (Colin), и др.--О фильме: Восьмилетний паренек Тим и его мать подсаживаются в такси к Бобу — невменяемому водителю, как раз подыскивающего себе новую жертву. После убийства женщины Тим становится марионеткой в руках психа, вынуждающего его хоронить тела. Хватит ли подростку мужества разорвать ужасную связь судьбы, все крепче стягивающую его с убийцей…--Качество видео: BDRip 720p
Формат видео: MKV
Видео кодек: AVC (High@L4.1)
Аудио кодек: DTS
Видео: AVC, 1280x534 (2.40:1), 23.976 fps, 4 348 Kbps (0.265 bit/pixel)
Аудио 1: DTS, 48.0 KHz, 6 ch, 1510 Kbps, CBR, 24 бит [Русский]
Аудио 2: DTS, 48.0 KHz, 6 ch, 1510 Kbps, CBR, 24 бит [Английский] -- --

Кадры из фильма

Тех. данные (MI)

Код:
Общее
Уникальный идентификатор : 229155903270954699725296800638625201649 (0xAC65D254A832AAADA3EAE41811713DF1)
Полное имя : Chained.2012.720p.BluRay.DTS.RUS.ENG.x264-EbP.mkv
Формат : Matroska
Версия формата : Version 2
Размер файла : 4,95 Гбайт
Продолжительность : 1 ч. 34 м.
Общий поток : 7518 Кбит/сек
Название фильма : BLUEBIRD
Дата кодирования : UTC 2013-02-19 09:53:26
Программа кодирования : mkvmerge v5.8.0 ('No Sleep / Pillow') built on Sep 2 2012 15:37:04
Библиотека кодирования : libebml v1.2.3 + libmatroska v1.3.0
Видео
Идентификатор : 1
Формат : AVC
Формат/Информация : Advanced Video Codec
Профиль формата : High@L4.1
Параметр CABAC формата : Да
Параметр ReFrames формата : 12 кадров
Идентификатор кодека : V_MPEG4/ISO/AVC
Продолжительность : 1 ч. 34 м.
Битрейт : 4348 Кбит/сек
Ширина : 1280 пикселей
Высота : 534 пикселя
Соотношение сторон : 2,40:1
Частота кадров : 23,976 кадра/сек
Цветовое пространство : YUV
Субдискретизация насыщенности : 4:2:0
Битовая глубина : 8 бит
Тип развёртки : Прогрессивная
Бит/(Пиксели*Кадры) : 0.265
Размер потока : 2,86 Гбайт (58%)
Заголовок : Chained 2012
Язык : English
Default : Да
Forced : Нет
Аудио #1
Идентификатор : 2
Формат : DTS
Формат/Информация : Digital Theater Systems
Идентификатор кодека : A_DTS
Продолжительность : 1 ч. 34 м.
Вид битрейта : Постоянный
Битрейт : 1510 Кбит/сек
Каналы : 6 каналов
Расположение каналов : Front: L C R, Side: L R, LFE
Частота : 48,0 КГц
Битовая глубина : 24 бит
Метод сжатия : С потерями
Размер потока : 1017 Мбайт (20%)
Заголовок : Baibako
Язык : Russian
Default : Да
Forced : Нет
Аудио #2
Идентификатор : 3
Формат : DTS
Формат/Информация : Digital Theater Systems
Идентификатор кодека : A_DTS
Продолжительность : 1 ч. 34 м.
Вид битрейта : Постоянный
Битрейт : 1510 Кбит/сек
Каналы : 6 каналов
Расположение каналов : Front: L C R, Side: L R, LFE
Частота : 48,0 КГц
Битовая глубина : 24 бит
Метод сжатия : С потерями
Размер потока : 1017 Мбайт (20%)
Язык : English
Default : Нет
Forced : Нет
Текст #1
Идентификатор : 4
Формат : UTF-8
Идентификатор кодека : S_TEXT/UTF8
Идентификатор кодека/Информация : UTF-8 Plain Text
Заголовок : Baibako
Язык : Russian
Default : Нет
Forced : Нет
Текст #2
Идентификатор : 5
Формат : UTF-8
Идентификатор кодека : S_TEXT/UTF8
Идентификатор кодека/Информация : UTF-8 Plain Text
Язык : English
Default : Нет
Forced : Нет
Меню
00:00:00.000 : en:00:00:00.000
00:02:29.483 : en:00:02:29.483
00:07:33.453 : en:00:07:33.453
00:11:40.658 : en:00:11:40.658
00:16:04.839 : en:00:16:04.839
00:20:46.537 : en:00:20:46.537
00:22:52.037 : en:00:22:52.037
00:29:29.017 : en:00:29:29.017
00:33:36.765 : en:00:33:36.765
00:38:38.233 : en:00:38:38.233
00:42:57.116 : en:00:42:57.116
00:48:34.995 : en:00:48:34.995
00:53:30.165 : en:00:53:30.165
00:57:40.791 : en:00:57:40.791
01:01:51.666 : en:01:01:51.666
01:07:20.912 : en:01:07:20.912
01:12:53.911 : en:01:12:53.911
01:18:32.958 : en:01:18:32.958
01:24:15.133 : en:01:24:15.133
01:31:25.814 : en:01:31:25.814

_________________
[Торрент-статистика]
[Профиль]  [ЛС] 
Показать сообщения:    
Ответить на тему

Текущее время: Сегодня 02:26

Часовой пояс: GMT + 4



Вы не можете начинать темы
Вы не можете отвечать на сообщения
Вы не можете редактировать свои сообщения
Вы не можете удалять свои сообщения
Вы не можете голосовать в опросах
Вы не можете прикреплять файлы к сообщениям
Вы не можете скачивать файлы