Робокоп / RoboCop (Жозе Падилья) [2014 г., Фантастика, боевик, криминал, ремейк, Blu-Ray Remux (1080p)] DUB |Blu-ray CEE|

Ответить на тему
 
Автор
Сообщение

sergei78 ®

Пол:

Стаж: 3 года 2 месяца

Сообщений: 92

Репутация: 120 [+] [-]

Откуда: Бывший СССР: "Связист Кстово 100/40"

Пост 04-Авг-2014 14:41

[Цитировать] 

-Робокоп / RoboCop
«У зла нет шансов»
- Информация о фильме:
Год выпуска: 2014
Страна: США, Columbia Pictures, Metro-Goldwyn-Mayer (MGM), Strike Entertainment
Жанр: Фантастика, боевик, криминал, ремейк
Продолжительность: 01:57:29
Перевод: Профессиональный (полное дублирование) |Blu-ray CEE|-
Режиссер: Жозе Падилья-Роли исполняли:
Юэль Киннаман, Гари Олдман, Майкл Китон, Эбби Корниш, Джей Барушель, Сэмюэл Л. Джексон, Айми Гарсиа, Дженнифер Или, Джеки Эрл Хейли, Майкл К. Уильямс-Описание фильма:
2028 год. Международный конгломерат ОмниКорп лидирует в производстве робототехники. Благодаря разработкам компании Америка успешно побеждает в войнах по всему миру. Но теперь пришло время применить технологию на американской земле. Алекс Мерфи — любящий муж, отец и отличный полицейский, оберегающий порядок в Детройте, получает на службе смертельные ранения. Специалисты ОмниКорпа, используя новейшие разработки, сохраняют ему жизнь. Алекс возвращается на службу в родной город не только с новыми сверхспособностями, но и с проблемами, с которыми не сталкивался ни один живой человек.-Информация о файле:
Тип релиза: Blu-Ray Remux (1080p)
Контейнер: MKV
Видео кодек: H264 (AVC)
Аудио кодек: AC3 (Dolby Digital)
Видео: MPEG-4 AVC, 26286 Кбит/с, 1920x1080, 23.976 кадр/с
Аудио 1:Russian: 48 kHz, DTS, 3/2 (L,C,R,l,r) + LFE ch, 768 kbps avg |Blu-ray CEE|
Аудио 2:Ukrainian: 48 kHz, AC3, 3/2 (L,C,R,l,r) + LFE ch, 448.00 kbps avg |Blu-ray CEE|
Аудио 3:DTS-HD Master Audio Russian 3871 kbps 5.1 / 48 kHz / 3871 kbps / 24-bit (DTS Core: 5.1 / 48 kHz / 1509 kbps / 24-bit) |Гаврилов|
Аудио 4:DTS-HD Master Audio Russian 3831 kbps 5.1 / 48 kHz / 3831 kbps / 24-bit (DTS Core: 5.1 / 48 kHz / 1509 kbps / 24-bit) |Живов|
Аудио 5:DTS-HD Master Audio Russian 3734 kbps 5.1 / 48 kHz / 3734 kbps / 24-bit (DTS Core: 5.1 / 48 kHz / 1509 kbps / 24-bit) |Есарев|
Аудио 6:DTS-HD Master Audio English 3954 kbps 5.1 / 48 kHz / 3954 kbps / 24-bit (DTS Core: 5.1 / 48 kHz / 1509 kbps / 24-bit) |Original|
Аудио 7:English: 48 kHz, AC3, 3/2 (L,C,R,l,r) + LFE ch, 448.00 kbps avg |Description|
Cубтитры: русские(forced,full),украинские(forced,full),английские(full,SDH,SDH Colored)
Чаптеры:есть-

Скриншоты

MediaInfo

General
Unique ID : 181532905875140825131017049301565779984 (0x8891F7474C0A1AAAAD8F2D2E394B3010)
Complete name : D:\рипы\Robocop.2014.BDRemux-Talian-.mkv
Format : Matroska
Format version : Version 2
File size : 35.6 GiB
Duration : 1h 57mn
Overall bit rate mode : Variable
Overall bit rate : 43.4 Mbps
Movie name : -Talian-
Encoded date : UTC 2014-07-08 13:11:09
Writing application : mkvmerge v5.7.0 ('The Whirlwind') built on Jul 8 2012 20:08:51
Writing library : libebml v1.2.3 + libmatroska v1.3.0
Attachment : Yes
Video
ID : 1
Format : AVC
Format/Info : Advanced Video Codec
Format profile : High@L4.1
Format settings, CABAC : Yes
Format settings, ReFrames : 4 frames
Codec ID : V_MPEG4/ISO/AVC
Duration : 1h 57mn
Bit rate mode : Variable
Bit rate : 34.4 Mbps
Maximum bit rate : 32.0 Mbps
Width : 1 920 pixels
Height : 1 080 pixels
Display aspect ratio : 16:9
Frame rate : 23.976 fps
Color space : YUV
Chroma subsampling : 4:2:0
Bit depth : 8 bits
Scan type : Progressive
Bits/(Pixel*Frame) : 0.691
Stream size : 28.2 GiB (79%)
Title : BDRemux
Language : English
Default : Yes
Forced : No
Audio #1
ID : 2
Format : DTS
Format/Info : Digital Theater Systems
Codec ID : A_DTS
Duration : 1h 57mn
Bit rate mode : Constant
Bit rate : 755 Kbps
Channel(s) : 6 channels
Channel positions : Front: L C R, Side: L R, LFE
Sampling rate : 48.0 KHz
Bit depth : 24 bits
Compression mode : Lossy
Stream size : 634 MiB (2%)
Title : Dub- Blu-Ray CEE
Language : Russian
Default : Yes
Forced : No
Audio #2
ID : 3
Format : AC-3
Format/Info : Audio Coding 3
Mode extension : CM (complete main)
Format settings, Endianness : Big
Codec ID : A_AC3
Duration : 1h 57mn
Bit rate mode : Constant
Bit rate : 448 Kbps
Channel(s) : 6 channels
Channel positions : Front: L C R, Side: L R, LFE
Sampling rate : 48.0 KHz
Bit depth : 16 bits
Compression mode : Lossy
Stream size : 376 MiB (1%)
Title : Dub- Blu-Ray CEE
Language : Ukrainian
Default : No
Forced : No
Audio #3
ID : 4
Format : DTS
Format/Info : Digital Theater Systems
Format profile : MA / Core
Codec ID : A_DTS
Duration : 1h 57mn
Bit rate mode : Variable
Bit rate : 1 801 Kbps / 1 510 Kbps
Channel(s) : 6 channels
Channel positions : Front: L C R, Side: L R, LFE
Sampling rate : 48.0 KHz
Bit depth : 24 bits
Compression mode : Lossless / Lossy
Title : AVO-Гаврилов
Language : Russian
Default : No
Forced : No
Audio #4
ID : 5
Format : DTS
Format/Info : Digital Theater Systems
Format profile : MA / Core
Codec ID : A_DTS
Duration : 1h 57mn
Bit rate mode : Variable
Bit rate : 1 561 Kbps / 1 510 Kbps
Channel(s) : 6 channels
Channel positions : Front: L C R, Side: L R, LFE
Sampling rate : 48.0 KHz
Bit depth : 24 bits
Compression mode : Lossless / Lossy
Title : AVO-Живов
Language : Russian
Default : No
Forced : No
Audio #5
ID : 6
Format : DTS
Format/Info : Digital Theater Systems
Format profile : MA / Core
Codec ID : A_DTS
Duration : 1h 57mn
Bit rate mode : Variable
Bit rate : 1 561 Kbps / 1 510 Kbps
Channel(s) : 6 channels
Channel positions : Front: L C R, Side: L R, LFE
Sampling rate : 48.0 KHz
Bit depth : 24 bits
Compression mode : Lossless / Lossy
Title : VO-Д.Есарев
Language : Russian
Default : No
Forced : No
Audio #6
ID : 7
Format : DTS
Format/Info : Digital Theater Systems
Format profile : MA / Core
Codec ID : A_DTS
Duration : 1h 57mn
Bit rate mode : Variable
Bit rate : 1 576 Kbps / 1 510 Kbps
Channel(s) : 6 channels
Channel positions : Front: L C R, Side: L R, LFE
Sampling rate : 48.0 KHz
Bit depth : 24 bits
Compression mode : Lossless / Lossy
Title : Original
Language : English
Default : No
Forced : No
Audio #7
ID : 8
Format : AC-3
Format/Info : Audio Coding 3
Mode extension : CM (complete main)
Format settings, Endianness : Big
Codec ID : A_AC3
Duration : 1h 57mn
Bit rate mode : Constant
Bit rate : 448 Kbps
Channel(s) : 6 channels
Channel positions : Front: L C R, Side: L R, LFE
Sampling rate : 48.0 KHz
Bit depth : 16 bits
Compression mode : Lossy
Stream size : 376 MiB (1%)
Title : Descriptive
Language : English
Default : No
Forced : No
Text #1
ID : 9
Format : UTF-8
Codec ID : S_TEXT/UTF8
Codec ID/Info : UTF-8 Plain Text
Title : Sub-Forced
Language : Russian
Default : Yes
Forced : No
Text #2
ID : 10
Format : UTF-8
Codec ID : S_TEXT/UTF8
Codec ID/Info : UTF-8 Plain Text
Title : Sub-Full
Language : Russian
Default : No
Forced : No
Text #3
ID : 11
Format : UTF-8
Codec ID : S_TEXT/UTF8
Codec ID/Info : UTF-8 Plain Text
Title : Sub-Forced
Language : Ukrainian
Default : No
Forced : No
Text #4
ID : 12
Format : UTF-8
Codec ID : S_TEXT/UTF8
Codec ID/Info : UTF-8 Plain Text
Title : Sub-Full
Language : Ukrainian
Default : No
Forced : No
Text #5
ID : 13
Format : UTF-8
Codec ID : S_TEXT/UTF8
Codec ID/Info : UTF-8 Plain Text
Title : Sub-Forced
Language : English
Default : No
Forced : No
Text #6
ID : 14
Format : UTF-8
Codec ID : S_TEXT/UTF8
Codec ID/Info : UTF-8 Plain Text
Title : Sub-Full
Language : English
Default : No
Forced : No
Text #7
ID : 15
Format : UTF-8
Codec ID : S_TEXT/UTF8
Codec ID/Info : UTF-8 Plain Text
Title : Sub-SDH
Language : English
Default : No
Forced : No
Text #8
ID : 16
Format : UTF-8
Codec ID : S_TEXT/UTF8
Codec ID/Info : UTF-8 Plain Text
Title : Sub-SDH (Colored)
Language : English
Default : No
Forced : No
Menu
00:00:00.000 : en:Chapter 1
00:04:33.898 : en:Chapter 2
00:08:51.739 : en:Chapter 3
00:14:33.914 : en:Chapter 4
00:17:01.603 : en:Chapter 5
00:19:27.040 : en:Chapter 6
00:21:52.936 : en:Chapter 7
00:26:13.571 : en:Chapter 8
00:30:47.971 : en:Chapter 9
00:32:48.675 : en:Chapter 10
00:36:12.378 : en:Chapter 11
00:39:06.969 : en:Chapter 12
00:43:03.497 : en:Chapter 13
00:45:40.654 : en:Chapter 14
00:52:10.377 : en:Chapter 15
00:57:21.187 : en:Chapter 16
01:01:23.888 : en:Chapter 17
01:02:59.901 : en:Chapter 18
01:06:05.920 : en:Chapter 19
01:10:30.476 : en:Chapter 20
01:13:26.527 : en:Chapter 21
01:18:24.866 : en:Chapter 22
01:21:56.202 : en:Chapter 23
01:26:04.993 : en:Chapter 24
01:28:06.906 : en:Chapter 25
01:32:02.975 : en:Chapter 26
01:35:52.955 : en:Chapter 27
01:38:30.654 : en:Chapter 28
01:41:30.751 : en:Chapter 29
01:43:44.635 : en:Chapter 30
01:46:41.561 : en:Chapter 31
01:50:12.689 : en:Chapter 32

Обложки

Интересно

Когда Селларс просматривает набросок дизайна робо-костюма, то можно заметить, что это костюм из фильма «Робокоп» (1987).
Хью Лори вел переговоры о роли Реймонда Селларса, однако они провалились. Клайв Оуэн всерьез рассматривался на замену Лори, но выбор пал на Майкла Китона.
Майкл Фассбендер, Маттиас Шонартс и Рассел Кроу рассматривались на главную роль.
Режиссером фильма первое время значился Даррен Аронофски, однако впоследствии его заменил бразильский постановщик Жозе Падилья.
Эдвард Нортон отказался от роли доктора Нортона. Роль исполнил Гари Олдман.
Шон Пенн отказался от роли медиамагната Пэта Новака, которую в итоге получил Сэмюэл Л. Джексон.
Гаэль Гарсия Берналь, Александр Скарсгард и Логан Маршалл-Грин были близки к получению роли, которая досталась Майклу К. Уильямсу.
Ребекка Холл отказалась от роли жены Алекса Мерфи. Джессика Альба, Кери Рассел и Кейт Мара проходили прослушивание, но роль получила Эбби Корниш.
В ремейке напарник у Мерфи — Джек Льюис, в оригинале у него была напарница Энн Льюис.
В оригинале злодеем был Кларенс Боддикер, а в ремейке — Антуан Вэллон.
Сохранённая ладонь — это отсылка к первому фильму о Робокопе. На промежуточном этапе создания робота-полицейского демонстрируют руководителю проекта — Бобу Мортону, который делает коллегам замечание: «Зачем вы оставили руку? Мы же говорили о полном протезе тела».
Для продвижения фильма Metro-Goldwyn-Mayer Studios Inc. и Sony Pictures в 2012 году создали псевдоофициальный сайт несуществующей OmniCorp, на котором был размещён рекламный ролик OmniCorp, записи вымышленных теленовостей о беспорядках в американских городах, описание двух видов её продукции (беспилотного самолёта и робота ED-209) и анонс киборга RC-2000. Также был создан псевдоофициальный профиль в Facebook, с тем же роликом и другими фотографиями робота ED-209 (в том числе его старой модели вместе с создателем) и RC-2000.
Робокоп вспоминает прошлое, в котором видит ранение напарника и взрыв себя в автомобиле, в оригинале он видел выстрелы в него и контрольный выстрел от главаря ему в голову.
Когда Алекс не проходит самые первые боевые испытания, персонаж Джеки Эрла Хейли говорит: «Я бы не купил это и за доллар». В оригинальном фильме несколько раз в кадре демонстрируется развлекательная телепередача, ведущий которой кричит «Я бы купил это за доллар!».
- - --РобоКоп / RoboCop (Жозе Падилья / José Padilha) [2014, фантастика, боевик, криминал, BDRip] [Лицензия]
[Торрент-статистика]
[Профиль]  [ЛС] 
Показать сообщения:    
Ответить на тему

Текущее время: Сегодня 16:32

Часовой пояс: GMT + 4



Вы не можете начинать темы
Вы не можете отвечать на сообщения
Вы не можете редактировать свои сообщения
Вы не можете удалять свои сообщения
Вы не можете голосовать в опросах
Вы не можете прикреплять файлы к сообщениям
Вы не можете скачивать файлы