Саботаж / Sabotage (Дэвид Эйр / David Ayer) [2014 г., боевик, триллер, драма, BDRip 720p] [Лицензия]

Ответить на тему
 
Автор
Сообщение

ArtZak ®

Пол:

Стаж: 9 лет 5 месяцев

Сообщений: 2829

Репутация: 1366 [+] [-]

Откуда: Россия

Пост 04-Авг-2014 04:22

[Цитировать] 

Саботаж / Sabotage
«Неудержимые снова в деле»
- Страна: США / 5150 Action, Albert S. Ruddy Productions, Crave Films, DEA Productions...
Жанр: боевик, триллер, драма, криминал
Год выпуска: 2014
Продолжительность: 01:48:55
Субтитры: Русские, английские (Full, SDH, SDH colored)
Навигация по главам: Есть
Перевод: Профессиональный (полное дублирование) [Лицензия]
Режиссер: Дэвид Эйр / David Ayer- -В ролях:
Арнольд Шварценеггер (John «Breacher» Wharton), Сэм Уортингтон (James «Monster» Murray), Оливия Уильямс (Caroline), Терренс Ховард (Julius «Sugar» Edmonds), Джо Манганьелло (Joe «Grinder» Phillips), Джош Холлоуэй (Eddie «Neck» Jordan), Мирей Инос (Lizzy Murray), Мартин Донован (Floyd Demel), Макс Мартини (Tom «Pyro» Roberts), Кевин Вэнс (Bryce «Tripod» McNeely), Марк Шлегель («Smoke» Jennings), Нед Юсеф (Dubai Money Launderer)
Описание:
История начинается с операции элитного подразделения из управления по борьбе с наркотиками, нагрянувшего на явочную квартиру наркокартеля. Команда решает скрыть от начальства, что в результате налёта они обогатились на миллионы долларов, но вскоре хранить тайну становится всё сложнее: кто-то по одному убирает всех участвовавших в операции.
Качество: BDRip 720p
Формат: MKV
Видео: MPEG4/AVC, 1280x694 (1.85:1), 5020 Кбит/сек, 23.976 кадра/сек
Аудио 1: AC3, 6 каналов, 448 Кбит/сек | Русский
Аудио 2: AC3, 6 каналов, 448 Кбит/сек | Английский

Скриншоты

Media Info

Общее
Уникальный идентификатор : 211944190438012444574898469713446547132 (0x9F72F75ECDE2AF4F8BA471B51B25AEBC)
Полное имя : Sabotage. (2014) BDRip 720p.mkv
Формат : Matroska
Версия формата : Version 2
Размер файла : 4,53 Гбайт
Продолжительность : 1 ч. 49 м.
Общий поток : 5917 Кбит/сек
Название фильма : Sabotage. 2014
Дата кодирования : UTC 2014-07-25 20:35:16
Программа кодирования : mkvmerge v5.8.0 ('No Sleep / Pillow') built on Sep 2 2012 15:37:04
Библиотека кодирования : libebml v1.2.3 + libmatroska v1.3.0
Видео
Идентификатор : 1
Формат : AVC
Формат/Информация : Advanced Video Codec
Профиль формата : High@L4.1
Параметр CABAC формата : Да
Параметр ReFrames формата : 8 кадров
Идентификатор кодека : V_MPEG4/ISO/AVC
Продолжительность : 1 ч. 49 м.
Битрейт : 5020 Кбит/сек
Ширина : 1280 пикселей
Высота : 694 пикселя
Соотношение сторон : 1,85:1
Режим частоты кадров : Постоянный
Частота кадров : 23,976 кадра/сек
Цветовое пространство : YUV
Субдискретизация насыщенности : 4:2:0
Битовая глубина : 8 бит
Тип развёртки : Прогрессивная
Бит/(Пиксели*Кадры) : 0.236
Размер потока : 3,76 Гбайт (83%)
Заголовок : CHD
Библиотека кодирования : x264 core 138 r2356 a1d3d17
Настройки программы : cabac=1 / ref=8 / deblock=1:-3:-3 / analyse=0x3:0x113 / me=umh / subme=10 / psy=1 / psy_rd=1.00:0.05 / mixed_ref=1 / me_range=32 / chroma_me=1 / trellis=2 / 8x8dct=1 / cqm=0 / deadzone=21,11 / fast_pskip=0 / chroma_qp_offset=-2 / threads=18 / lookahead_threads=1 / sliced_threads=0 / nr=0 / decimate=1 / interlaced=0 / bluray_compat=0 / constrained_intra=0 / bframes=4 / b_pyramid=2 / b_adapt=2 / b_bias=0 / direct=3 / weightb=1 / open_gop=0 / weightp=0 / keyint=250 / keyint_min=23 / scenecut=40 / intra_refresh=0 / rc=2pass / mbtree=0 / bitrate=5020 / ratetol=1.0 / qcomp=0.70 / qpmin=0 / qpmax=69 / qpstep=4 / cplxblur=20.0 / qblur=0.5 / ip_ratio=1.40 / pb_ratio=1.30 / aq=2:1.00
Язык : English
Default : Да
Forced : Нет
Аудио #1
Идентификатор : 2
Формат : AC-3
Формат/Информация : Audio Coding 3
Расширение режима : CM (complete main)
Параметр Endianness формата : Big
Идентификатор кодека : A_AC3
Продолжительность : 1 ч. 49 м.
Вид битрейта : Постоянный
Битрейт : 448 Кбит/сек
Каналы : 6 каналов
Расположение каналов : Front: L C R, Side: L R, LFE
Частота : 48,0 КГц
Битовая глубина : 16 бит
Метод сжатия : С потерями
Размер потока : 351 Мбайт (8%)
Заголовок : Dub | Blu-ray - Rus
Язык : Russian
Default : Да
Forced : Да
Аудио #2
Идентификатор : 3
Формат : AC-3
Формат/Информация : Audio Coding 3
Расширение режима : CM (complete main)
Параметр Endianness формата : Big
Идентификатор кодека : A_AC3
Продолжительность : 1 ч. 49 м.
Вид битрейта : Постоянный
Битрейт : 448 Кбит/сек
Каналы : 6 каналов
Расположение каналов : Front: L C R, Side: L R, LFE
Частота : 48,0 КГц
Битовая глубина : 16 бит
Метод сжатия : С потерями
Размер потока : 351 Мбайт (8%)
Заголовок : Eng | Blu-ray
Язык : English
Default : Нет
Forced : Нет
Текст #1
Идентификатор : 4
Формат : UTF-8
Идентификатор кодека : S_TEXT/UTF8
Идентификатор кодека/Информация : UTF-8 Plain Text
Заголовок : Full | Notabenoid
Язык : Russian
Default : Нет
Forced : Нет
Текст #2
Идентификатор : 5
Формат : UTF-8
Идентификатор кодека : S_TEXT/UTF8
Идентификатор кодека/Информация : UTF-8 Plain Text
Заголовок : Full
Язык : English
Default : Нет
Forced : Нет
Текст #3
Идентификатор : 6
Формат : UTF-8
Идентификатор кодека : S_TEXT/UTF8
Идентификатор кодека/Информация : UTF-8 Plain Text
Заголовок : SDH
Язык : English
Default : Нет
Forced : Нет
Текст #4
Идентификатор : 7
Формат : UTF-8
Идентификатор кодека : S_TEXT/UTF8
Идентификатор кодека/Информация : UTF-8 Plain Text
Заголовок : SDH | colored
Язык : English
Default : Нет
Forced : Нет
Меню
00:00:00.000 : en:00:00:00.000
00:09:58.556 : en:00:09:58.556
00:13:13.126 : en:00:13:13.126
00:19:44.308 : en:00:19:44.308
00:25:16.932 : en:00:25:16.932
00:30:09.599 : en:00:30:09.599
00:34:21.977 : en:00:34:21.977
00:37:33.376 : en:00:37:33.376
00:43:00.745 : en:00:43:00.745
00:48:32.118 : en:00:48:32.118
00:53:13.107 : en:00:53:13.107
00:57:38.622 : en:00:57:38.622
01:03:43.778 : en:01:03:43.778
01:07:59.450 : en:01:07:59.450
01:14:38.557 : en:01:14:38.557
01:18:42.551 : en:01:18:42.551
01:22:41.165 : en:01:22:41.165
01:28:49.491 : en:01:28:49.491
01:35:39.317 : en:01:35:39.317
01:42:47.828 : en:01:42:47.828
[Торрент-статистика]
[Профиль]  [ЛС] 
Показать сообщения:    
Ответить на тему

Текущее время: Сегодня 06:32

Часовой пояс: GMT + 4



Вы не можете начинать темы
Вы не можете отвечать на сообщения
Вы не можете редактировать свои сообщения
Вы не можете удалять свои сообщения
Вы не можете голосовать в опросах
Вы не можете прикреплять файлы к сообщениям
Вы не можете скачивать файлы