Ной / Noah (Даррен Аронофски / Darren Aronofsky) [2014 г., драма, приключения, фэнтези, BDRip 720p] [Лицензия]

Ответить на тему
 
Автор
Сообщение

ArtZak ®

Пол:

Стаж: 9 лет 5 месяцев

Сообщений: 2829

Репутация: 1366 [+] [-]

Откуда: Россия

Пост 03-Авг-2014 16:41

[Цитировать] 

Ной / Noah
«Конец — это только начало»
- Страна: США
Год выпуска: 2014
Жанр: драма, приключения, фэнтези
Продолжительность: 02:17:53
Субтитры: Русские, английские
Навигация по главам: Есть
Перевод: Профессиональный (полное дублирование) [Лицензия]
Режиссер: Даррен Аронофски / Darren Aronofsky- -В ролях:
Рассел Кроу (Noah), Дженнифер Коннелли (Naameh), Рэй Уинстон (Tubal-cain), Энтони Хопкинс (Methuselah), Эмма Уотсон (Ila), Логан Лерман (Ham), Дуглас Бут (Shem), Ник Нолти (Samyaza), Марк Марголис (Magog), Кевин Дюран (Rameel), Лео МакХью Кэрролл (Japheth), Мартон Чокаш (Lamech)
Описание фильма:
История отца, воина и спасителя Человечества и всего живого на Земле.
Качество видео: BDRip 720p
Исходник: Noah.2014.BluRay.1080p.AVC.DTS-HD.MA7.1-loongkee@CHDBits
Формат: MKV
Видео кодек: MPEG-4 AVC
Аудио кодек: AC3
Видео: AVC, 1280x694 (1.85:1) at 23.976 fps, AVC at 4445 kbps avg, 0.209 bit/pixel
Аудио: Russian: 48 kHz; AC3 5.1; 640.00 kbps avg; профессиональный, полное дублирование
Автор рипа:

Скриншоты

MediaInfo

Код:
Noah.2014.720p.BluRay.x264-LEONARDO_[scarabey.org].mkv
Format                                   : Matroska
Format version                           : Version 2
File size                                : 4.99 GiB
Duration                                 : 2h 17mn
Overall bit rate                         : 5 183 Kbps
Movie name                               : -=LEONARDO=-
Encoded date                             : UTC 2014-07-26 09:41:59
Writing application                      : mkvmerge v5.0.1 ('Es ist Sommer') built on Oct 23 2011 00:46:40
Writing library                          : libebml v1.2.2 + libmatroska v1.3.0
Attachment                               : Yes
Video
ID                                       : 1
Format                                   : AVC
Format/Info                              : Advanced Video Codec
Format profile                           : High@L4.1
Format settings, CABAC                   : Yes
Format settings, ReFrames                : 9 frames
Codec ID                                 : V_MPEG4/ISO/AVC
Duration                                 : 2h 17mn
Bit rate                                 : 4 440 Kbps
Width                                    : 1 280 pixels
Height                                   : 694 pixels
Display aspect ratio                     : 1.85:1
Frame rate                               : 23.976 fps
Color space                              : YUV
Chroma subsampling                       : 4:2:0
Bit depth                                : 8 bits
Scan type                                : Progressive
Bits/(Pixel*Frame)                       : 0.208
Stream size                              : 4.28 GiB (86%)
Writing library                          : x264 core 125 r2208 d9d2288
Encoding settings                        : cabac=1 / ref=9 / deblock=1:-3:-3 / analyse=0x3:0x133 / me=umh / subme=11 / psy=1 / psy_rd=1.00:0.20 / mixed_ref=1 / me_range=32 / chroma_me=1 / trellis=2 / 8x8dct=1 / cqm=0 / deadzone=21,11 / fast_pskip=0 / chroma_qp_offset=-3 / threads=12 / lookahead_threads=2 / sliced_threads=0 / nr=0 / decimate=1 / interlaced=0 / bluray_compat=0 / constrained_intra=0 / bframes=8 / b_pyramid=2 / b_adapt=2 / b_bias=0 / direct=1 / weightb=1 / open_gop=0 / weightp=2 / keyint=250 / keyint_min=23 / scenecut=40 / intra_refresh=0 / rc=crf / mbtree=0 / crf=20.0 / qcomp=0.60 / qpmin=0 / qpmax=69 / qpstep=4 / ip_ratio=1.10 / pb_ratio=1.10 / aq=1:1.00
Language                                 : English
Default                                  : Yes
Forced                                   : No
Audio
ID                                       : 2
Format                                   : AC-3
Format/Info                              : Audio Coding 3
Mode extension                           : CM (complete main)
Codec ID                                 : A_AC3
Duration                                 : 2h 17mn
Bit rate mode                            : Constant
Bit rate                                 : 640 Kbps
Channel(s)                               : 6 channels
Channel positions                        : Front: L C R, Side: L R, LFE
Sampling rate                            : 48.0 KHz
Bit depth                                : 16 bits
Compression mode                         : Lossy
Stream size                              : 631 MiB (12%)
Title                                    : AC3 5.1 @ 640 kbps - Blu-ray CEE
Language                                 : Russian
Default                                  : Yes
Forced                                   : Yes
Text #1
ID                                       : 3
Format                                   : UTF-8
Codec ID                                 : S_TEXT/UTF8
Codec ID/Info                            : UTF-8 Plain Text
Title                                    : Forced
Language                                 : Russian
Default                                  : Yes
Forced                                   : No
Text #2
ID                                       : 4
Format                                   : UTF-8
Codec ID                                 : S_TEXT/UTF8
Codec ID/Info                            : UTF-8 Plain Text
Language                                 : Russian
Default                                  : No
Forced                                   : No
Text #3
ID                                       : 5
Format                                   : UTF-8
Codec ID                                 : S_TEXT/UTF8
Codec ID/Info                            : UTF-8 Plain Text
Language                                 : Ukrainian
Default                                  : No
Forced                                   : No
Text #4
ID                                       : 6
Format                                   : UTF-8
Codec ID                                 : S_TEXT/UTF8
Codec ID/Info                            : UTF-8 Plain Text
Language                                 : English
Default                                  : No
Forced                                   : No
Text #5
ID                                       : 7
Format                                   : UTF-8
Codec ID                                 : S_TEXT/UTF8
Codec ID/Info                            : UTF-8 Plain Text
Title                                    : SDH
Language                                 : English
Default                                  : No
Forced                                   : No
Text #6
ID                                       : 8
Format                                   : UTF-8
Codec ID                                 : S_TEXT/UTF8
Codec ID/Info                            : UTF-8 Plain Text
Title                                    : SDH-COLORED
Language                                 : English
Default                                  : No
Forced                                   : No
Menu
00:00:00.000                             : :00:00:00.000
00:04:48.955                             : :00:04:48.955
00:08:37.267                             : :00:08:37.267
00:12:23.034                             : :00:12:23.034
00:18:43.080                             : :00:18:43.080
00:23:25.487                             : :00:23:25.487
00:32:06.424                             : :00:32:06.424
00:37:27.203                             : :00:37:27.203
00:42:50.735                             : :00:42:50.735
00:54:35.647                             : :00:54:35.647
01:01:14.963                             : :01:01:14.963
01:03:28.596                             : :01:03:28.596
01:09:33.795                             : :01:09:33.795
01:19:18.337                             : :01:19:18.337
01:21:56.537                             : :01:21:56.537
01:29:12.347                             : :01:29:12.347
01:34:02.053                             : :01:34:02.053
01:40:27.355                             : :01:40:27.355
01:49:23.098                             : :01:49:23.098
01:55:57.826                             : :01:55:57.826
02:00:37.230                             : :02:00:37.230
02:11:32.676                             : :02:11:32.676
[Торрент-статистика]
[Профиль]  [ЛС] 
Показать сообщения:    
Ответить на тему

Текущее время: Сегодня 09:59

Часовой пояс: GMT + 4



Вы не можете начинать темы
Вы не можете отвечать на сообщения
Вы не можете редактировать свои сообщения
Вы не можете удалять свои сообщения
Вы не можете голосовать в опросах
Вы не можете прикреплять файлы к сообщениям
Вы не можете скачивать файлы