Опасные мысли / Dangerous Minds (Джон Н. Смит / John N. Smith) [1995 г., криминальная драма, HDTVRip 720p]

Ответить на тему
 
Автор
Сообщение

awk05 ®

Пол:

Стаж: 4 года 5 месяцев

Сообщений: 1352

Репутация: 275 [+] [-]

Откуда: Западная Украина Ривне

Пост 01-Авг-2014 22:18

[Цитировать] 

--Опасные мысли / Dangerous Minds
«She Broke The Rules... And Changed Their Lives»
-- Год выпуска: 1995
Страна: США
Жанр: криминальная драма
Продолжительность: 01:38:42
Перевод: профессиональный (двухголосый закадровый); одноголосый Гаврилов
Субтитры: Russian, English--Режиссер: Джон Н. Смит / John N. Smith --
В ролях: Мишель Пфайффер (Louanne Johnson), Джордж Дзундза (Hal Griffith), Кортни Б. Вэнс (Mr. George Grandey), Робин Бартлетт (Mrs. Carla Nichols), Беатрис Уинд (Mary Benton), Джон Невилл (Waiter), Лоррейн Туссен (Irene Roberts), Реноли Сантьяго (Raul Sanchero), Уэйд Домингес (Emilio Ramirez), Бруклин Харрис (Callie Roberts), Марселло Тедфорд (Cornelius Bates), Роберто Альварес (Gusmaro Rivera), Марисела Гонсалес (Angela), b lh/--Описание: ЛуЭнн Джонсон, закончив службу в частях морской пехоты США, устраивается учителем английского языка в один из колледжей Калифорнии. Её учениками оказываются угрюмые подростки из семей низшего класса общества, большая часть которых ведет асоциальный образ жизни, принимает участие в уличных бандах, занимается торговлей наркотиками. Юные подопечные Лоуан наотрез отказываются учиться. Для того, чтобы вернуть учеников к нормальному образу жизни и пробудить их интерес к учёбе, новоиспечённому учителю приходится использовать опыт, полученный на военной службе.--Качество видео: HDTVRip 720p
Формат видео: MKV
Видео кодек: AVC (High@L4.1)
Аудио кодек: AC-3
Видео: AVC, 1280x718 (16:9), 23.976 fps, 5 960 Kbps (0.270 bit/pixel)
Аудио 1: AC-3, 48.0 KHz, 6 ch, 448 Kbps, CBR, 16 бит [RUS]
Аудио 2: AC-3, 48.0 KHz, 6 ch, 448 Kbps, CBR, 16 бит [RUS]
Аудио 3: AC-3, 48.0 KHz, 6 ch, 384 Kbps, CBR, 16 бит [ENG] -- --

Знаете ли Вы, что...

* В качестве саундтрека к фильму использовался сингл знаменитого рэппера Кулио — «Ganstas Paradise».
* У Кулио снят клип к синглу «Gangsta’s Paradise», схожий с сюжетом фильма — учительница ЛуЭнн Джонсон приходит поговорить с Кулио и приводит мальчика похожего на него.
* По похожему сюжету снято ещё два фильма, один из них «История Рона Кларка»

Кадры из фильма

Тех. данные (MI)

Код:
Общее
Уникальный идентификатор                 : 249136702028776318501085314544409161059 (0xBB6DFBC4944453EA801035B65322AD63)
Полное имя                               : E:\тест\Dangerous.Minds.1995.720p.HDTV.x264.Rus.Eng.mkv
Формат                                   : Matroska
Версия формата                           : Version 1
Размер файла                             : 4,90 Гбайт
Продолжительность                        : 1 ч. 38 м.
Общий поток                              : 7111 Кбит/сек
Дата кодирования                         : UTC 2010-09-26 05:14:16
Программа кодирования                    : mkvmerge v2.4.0 ('Fumbling Towards Ecstasy') built on Oct 11 2008 20:13:15
Библиотека кодирования                   : libebml v0.7.7 + libmatroska v0.8.1
Видео
Идентификатор                            : 1
Формат                                   : AVC
Формат/Информация                        : Advanced Video Codec
Профиль формата                          : High@L4.1
Параметр CABAC формата                   : Да
Параметр ReFrames формата                : 9 кадров
Идентификатор кодека                     : V_MPEG4/ISO/AVC
Продолжительность                        : 1 ч. 38 м.
Битрейт                                  : 5960 Кбит/сек
Ширина                                   : 1280 пикселей
Высота                                   : 718 пикселей
Соотношение сторон                       : 16:9
Режим частоты кадров                     : Постоянный
Частота кадров                           : 23,976 кадра/сек
Цветовое пространство                    : YUV
Субдискретизация насыщенности            : 4:2:0
Битовая глубина                          : 8 бит
Тип развёртки                            : Прогрессивная
Бит/(Пиксели*Кадры)                      : 0.270
Размер потока                            : 4,01 Гбайт (82%)
Библиотека кодирования                   : x264 core 102 r1666 d058f37
Настройки программы                      : cabac=1 / ref=9 / deblock=1:-3:-3 / analyse=0x3:0x133 / me=umh / subme=9 / psy=1 / psy_rd=0.95:0.05 / mixed_ref=1 / me_range=40 / chroma_me=1 / trellis=2 / 8x8dct=1 / cqm=0 / deadzone=21,11 / fast_pskip=0 / chroma_qp_offset=-5 / threads=12 / sliced_threads=0 / nr=0 / decimate=1 / interlaced=0 / constrained_intra=0 / bframes=7 / b_pyramid=2 / b_adapt=2 / b_bias=0 / direct=3 / weightb=1 / open_gop=0 / weightp=2 / keyint=250 / keyint_min=25 / scenecut=40 / intra_refresh=0 / rc_lookahead=40 / rc=2pass / mbtree=0 / bitrate=5960 / ratetol=1.0 / qcomp=0.60 / qpmin=10 / qpmax=51 / qpstep=4 / cplxblur=20.0 / qblur=0.5 / vbv_maxrate=50000 / vbv_bufsize=50000 / ip_ratio=1.40 / pb_ratio=1.30 / aq=1:0.80 / nal_hrd=none
Язык                                     : English
Default                                  : Да
Forced                                   : Нет
Аудио #1
Идентификатор                            : 2
Формат                                   : AC-3
Формат/Информация                        : Audio Coding 3
Расширение режима                        : CM (complete main)
Параметр Endianness формата              : Big
Идентификатор кодека                     : A_AC3
Продолжительность                        : 1 ч. 38 м.
Вид битрейта                             : Постоянный
Битрейт                                  : 384 Кбит/сек
Каналы                                   : 6 каналов
Расположение каналов                     : Front: L C R, Side: L R, LFE
Частота                                  : 48,0 КГц
Битовая глубина                          : 16 бит
Метод сжатия                             : С потерями
Размер потока                            : 271 Мбайт (5%)
Заголовок                                : Zakadr
Язык                                     : Russian
Default                                  : Да
Forced                                   : Нет
Аудио #2
Идентификатор                            : 3
Формат                                   : AC-3
Формат/Информация                        : Audio Coding 3
Расширение режима                        : CM (complete main)
Параметр Endianness формата              : Big
Идентификатор кодека                     : A_AC3
Продолжительность                        : 1 ч. 38 м.
Вид битрейта                             : Постоянный
Битрейт                                  : 384 Кбит/сек
Каналы                                   : 6 каналов
Расположение каналов                     : Front: L C R, Side: L R, LFE
Частота                                  : 48,0 КГц
Битовая глубина                          : 16 бит
Метод сжатия                             : С потерями
Размер потока                            : 271 Мбайт (5%)
Заголовок                                : Gavrilov
Язык                                     : Russian
Default                                  : Нет
Forced                                   : Нет
Аудио #3
Идентификатор                            : 4
Формат                                   : AC-3
Формат/Информация                        : Audio Coding 3
Расширение режима                        : CM (complete main)
Параметр Endianness формата              : Big
Идентификатор кодека                     : A_AC3
Продолжительность                        : 1 ч. 38 м.
Вид битрейта                             : Постоянный
Битрейт                                  : 384 Кбит/сек
Каналы                                   : 6 каналов
Расположение каналов                     : Front: L C R, Side: L R, LFE
Частота                                  : 48,0 КГц
Битовая глубина                          : 16 бит
Метод сжатия                             : С потерями
Размер потока                            : 271 Мбайт (5%)
Заголовок                                : Eng
Язык                                     : English
Default                                  : Нет
Forced                                   : Нет
Текст #1
Идентификатор                            : 5
Формат                                   : ASS
Идентификатор кодека                     : S_TEXT/ASS
Идентификатор кодека/Информация          : Advanced Sub Station Alpha
Метод сжатия                             : Без потерь
Заголовок                                : Rus
Язык                                     : Russian
Default                                  : Нет
Forced                                   : Нет
Текст #2
Идентификатор                            : 6
Формат                                   : UTF-8
Идентификатор кодека                     : S_TEXT/UTF8
Идентификатор кодека/Информация          : UTF-8 Plain Text
Заголовок                                : Eng
Язык                                     : English
Default                                  : Нет
Forced                                   : Нет

_________________
[Торрент-статистика]
[Профиль]  [ЛС] 
Показать сообщения:    
Ответить на тему

Текущее время: Сегодня 16:32

Часовой пояс: GMT + 4



Вы не можете начинать темы
Вы не можете отвечать на сообщения
Вы не можете редактировать свои сообщения
Вы не можете удалять свои сообщения
Вы не можете голосовать в опросах
Вы не можете прикреплять файлы к сообщениям
Вы не можете скачивать файлы