Дом с паранормальными явлениями 2 / A Haunted House 2 (Майкл Тиддес / Michael Tiddes) [2014 г., ужасы, комедия, WEB-DL 720p] [Чистый звук]

Ответить на тему
 
Автор
Сообщение

ArtZak ®

Пол:

Стаж: 9 лет 5 месяцев

Сообщений: 2829

Репутация: 1366 [+] [-]

Откуда: Россия

Пост 01-Авг-2014 10:38

[Цитировать] 

Дом с паранормальными явлениями 2 / A Haunted House 2
«Нагнали страху аж до сиквела»
- Год выпуска: 2014
Производство: США | Automatik Entertainment, IM Global Octane, Wayans Bros. Entertainment
Жанр: ужасы, комедия
Перевод: Профессиональный (полное дублирование) [Чистый звук]
Субтитры: английские
Оригинальная дорожка: английская
Оглавление: есть
Продолжительность: 01:16:15
Режиссер: Майкл Тиддес / Michael Tiddes- -В ролях:
Марлон Уайанс, Джейми Прессли, Эссенс Эткинс, Гэбриел Иглесиас, Мисси Пайлm Эшли Рикардс, Эффион Крокетт, Стил Стеббинс, Рик Овертон, Хэйз МакАртур и др.
Описание:
Малькольм, изгнавший демонов из своей бывшей подружки, начинает новую жизнь с другой девушкой и ее двумя детьми. После переезда в дом своей мечты, с Малькольмом снова начинают случаться загадочные происшествия. И, похоже, паранормальные явления теперь преследуют его не только в собственном доме…
Рейтинг MPAA: PG-17
Возраст: 18+
Качество видео: WEB-DL 720p
Контейнер: MKV
Видео: AVC, 1280x688 (1.860), 23.976 fps, 3 828 Kbps (0.181 bit/pixel)
Аудио #1: AC-3, 48.0 KHz, 2 ch, 384 Kbps, CBR
Аудио #2: AC-3, 48.0 KHz, 6 ch, 384 Kbps, CBR (English)

MI

Код:
General
Unique ID                                : 189208135143716169026344606334332479925 (0x8E58294C3C032F069F33379D3D04A9B5)
Complete name                            : D:\downloads\D0m.C.paPaH0PmaLHymi.YaBLeHiYami.2.2014.D.WEBDL.720p.mkv
Format                                   : Matroska
Format version                           : Version 4 / Version 2
File size                                : 2.84 GiB
Duration                                 : 1h 26mn
Overall bit rate                         : 4 690 Kbps
Encoded date                             : UTC 2014-07-29 08:51:53
Writing application                      : mkvmerge v7.0.0 ('Where We Going') 64bit built on Jun  9 2014 15:16:27
Writing library                          : libebml v1.3.0 + libmatroska v1.4.1
_STATISTICS_WRITING_APP                  : mkvmerge v7.0.0 ('Where We Going') 64bit built on Jun  9 2014 15:16:27
_STATISTICS_WRITING_DATE_UTC             : 2014-07-29 08:51:53
_STATISTICS_TAGS                         : BPS DURATION NUMBER_OF_FRAMES NUMBER_OF_BYTES
DURATION                                 : 01:26:48.000000000
NUMBER_OF_FRAMES                         : 162750
NUMBER_OF_BYTES                          : 249984000
Video
ID                                       : 1
Format                                   : AVC
Format/Info                              : Advanced Video Codec
Format profile                           : High@L3.1
Format settings, CABAC                   : No
Format settings, ReFrames                : 2 frames
Codec ID                                 : V_MPEG4/ISO/AVC
Duration                                 : 1h 26mn
Bit rate                                 : 3 828 Kbps
Width                                    : 1 280 pixels
Height                                   : 688 pixels
Display aspect ratio                     : 1.85:1
Frame rate mode                          : Constant
Frame rate                               : 23.976 fps
Color space                              : YUV
Chroma subsampling                       : 4:2:0
Bit depth                                : 8 bits
Scan type                                : Progressive
Bits/(Pixel*Frame)                       : 0.181
Stream size                              : 2.32 GiB (82%)
Language                                 : English
Default                                  : Yes
Forced                                   : No
Color primaries                          : BT.709
Transfer characteristics                 : BT.709
Matrix coefficients                      : BT.709
Audio #1
ID                                       : 2
Format                                   : AC-3
Format/Info                              : Audio Coding 3
Mode extension                           : CM (complete main)
Format settings, Endianness              : Big
Codec ID                                 : A_AC3
Duration                                 : 1h 26mn
Bit rate mode                            : Constant
Bit rate                                 : 384 Kbps
Channel(s)                               : 2 channels
Channel positions                        : Front: L R
Sampling rate                            : 48.0 KHz
Bit depth                                : 16 bits
Compression mode                         : Lossy
Stream size                              : 238 MiB (8%)
Default                                  : Yes
Forced                                   : No
Audio #2
ID                                       : 3
Format                                   : AC-3
Format/Info                              : Audio Coding 3
Mode extension                           : CM (complete main)
Format settings, Endianness              : Big
Codec ID                                 : A_AC3
Duration                                 : 1h 26mn
Bit rate mode                            : Constant
Bit rate                                 : 384 Kbps
Channel(s)                               : 6 channels
Channel positions                        : Front: L C R, Side: L R, LFE
Sampling rate                            : 48.0 KHz
Bit depth                                : 16 bits
Compression mode                         : Lossy
Stream size                              : 238 MiB (8%)
Language                                 : English
Default                                  : No
Forced                                   : No
Text
ID                                       : 4
Format                                   : UTF-8
Codec ID                                 : S_TEXT/UTF8
Codec ID/Info                            : UTF-8 Plain Text
Default                                  : Yes
Forced                                   : No
Menu
00:00:00.000                             : en:1
00:03:38.000                             : en:2
00:07:41.000                             : en:3
00:12:20.000                             : en:4
00:17:28.000                             : en:5
00:23:34.000                             : en:6
00:29:38.000                             : en:7
00:33:53.000                             : en:8
00:37:35.000                             : en:9
00:40:24.000                             : en:10
00:43:07.000                             : en:11
00:47:37.000                             : en:12
00:50:16.000                             : en:13
00:55:34.000                             : en:14
01:00:18.000                             : en:15
01:04:37.000                             : en:16
01:08:19.000                             : en:17
01:12:16.000                             : en:18
01:15:59.000                             : en:19
01:20:03.000                             : en:20

Скриншоты

[Торрент-статистика]
[Профиль]  [ЛС] 
Показать сообщения:    
Ответить на тему

Текущее время: Сегодня 03:07

Часовой пояс: GMT + 4



Вы не можете начинать темы
Вы не можете отвечать на сообщения
Вы не можете редактировать свои сообщения
Вы не можете удалять свои сообщения
Вы не можете голосовать в опросах
Вы не можете прикреплять файлы к сообщениям
Вы не можете скачивать файлы