Вулкан страстей / Eyjafjallajokull / Le volcan (Александр Коффре / Alexandre Coffre) [2013 г., комедия, приключения, BDRip 720p] Dub + Fra

Ответить на тему
 
Автор
Сообщение

awk05 ®

Пол:

Стаж: 8 лет 9 месяцев

Сообщений: 1334

Репутация: 278 [+] [-]

Откуда: Западная Украина Ривне

Пост 31-Июл-2014 22:17

[Цитировать] 

Вулкан страстей / Eyjafjallajokull / Le volcan«Бывший - хуже стихии»-- Год выпуска: 2013
Страна: Франция, Бельгия
Жанр: комедия, приключения
Продолжительность: 01:31:53
Перевод: Профессиональный (полное дублирование) - Лицензия + Оригинал Французский
Cубтитры: нет--Режиссер: Александр Коффре / Alexandre Coffre --
В ролях: Валери Боннетон (Valérie), Дэни Бун (Alain), Дени Меноше (Ezéchiel), Альберт Дельпи (Tonton Roger), Беранжер МакНис (Cécile), Малик Бенталха (Ami Cécile), Констанс Долле (Sylvie), Мириам Азенкот (Voisine avion), Арно Анриет (Voisin avion Alain), Ян Сортон (Stewart grec), Йохен Хаэгеле (Agent Avis Allemagne), Барбара Орнеллас (Femme autocar), Тифен Давьо (Amie Cécile), и др.--Описание: Где бы вы не хотели встретиться со своим бывшим? Только не в соседнем кресле самолета, чтобы пережить вместе длинный перелет. И уж точно не в одной машине, чтобы вопреки исландскому вулкану с непроизносимым названием, пересечь всю Европу. Когда вы страстно ненавидите друг друга, может случиться всякое. И угон самолета, и авария, и побег из полиции и даже… возвращение романтики--Качество видео: BDRip 720p
Формат видео: MKV
Видео кодек: AVC (High@L4.1)
Аудио кодек: AC-3
Видео: AVC, 1280x536 (2.40:1), 23.976 fps, 2 916 Kbps (0.177 bit/pixel)
Аудио 1: AC-3, 48.0 KHz, 6 ch, 448 Kbps, CBR, 16 бит [RUS] R5
Аудио 2: AC-3, 48.0 KHz, 6 ch, 640 Kbps, CBR, 16 бит [ENG] --- --

Кадры из фильма


Тех. данные (MI)

Код:
General
Unique ID                      : 227489464853146057280506806855989067316 (0xAB24E092C1B9D0CAA5B86408FDF5FE34)
Complete name                  : H:Eyjafjallajokull.2013.BD.720.Hot-Film.mkv
Format                         : Matroska
Format version                 : Version 2
File size                      : 2.57 GiB
Duration                       : 01:31:53
Overall bit rate               : 4 003 Kbps
Encoded date                   : UTC 2014-06-21 13:11:40
Writing application            : mkvmerge v5.8.0 ('No Sleep / Pillow') built on Sep  2 2012 15:37:04
Writing library                : libebml v1.2.3 + libmatroska v1.3.0
Video
ID                             : 1
Format                         : AVC
Format/Info                    : Advanced Video Codec
Format profile                 : High@L4.1
Format settings, CABAC         : Yes
Format settings, ReFrames      : 9 frames
Codec ID                       : V_MPEG4/ISO/AVC
Duration                       : 1h 31mn
Bit rate                       : 2 916 Kbps
Width                          : 1 280 pixels
Height                         : 536 pixels
Display aspect ratio           : 2.40:1
Frame rate mode                : Constant
Frame rate                     : 24.000 fps
Color space                    : YUV
Chroma subsampling             : 4:2:0
Bit depth                      : 8 bits
Scan type                      : Progressive
Bits/(Pixel*Frame)             : 0.177
Stream size                    : 1.82 GiB (71%)
Writing library                : x264 core 138 r2358 9e941d1
Encoding settings              : cabac=1 / ref=9 / deblock=1:-3:-3 / analyse=0x3:0x133 / me=umh / subme=11 / psy=1 / psy_rd=1.00:0.10 / mixed_ref=1 / me_range=32 / chroma_me=1 / trellis=2 / 8x8dct=1 / cqm=0 / deadzone=21,11 / fast_pskip=0 / chroma_qp_offset=-3 / threads=12 / lookahead_threads=3 / sliced_threads=0 / nr=0 / decimate=0 / interlaced=0 / bluray_compat=0 / constrained_intra=0 / bframes=10 / b_pyramid=2 / b_adapt=2 / b_bias=0 / direct=3 / weightb=1 / open_gop=0 / weightp=2 / keyint=240 / keyint_min=24 / scenecut=40 / intra_refresh=0 / rc_lookahead=40 / rc=2pass / mbtree=0 / bitrate=2916 / ratetol=1.0 / qcomp=0.60 / qpmin=0 / qpmax=69 / qpstep=4 / cplxblur=20.0 / qblur=0.5 / vbv_maxrate=50000 / vbv_bufsize=62500 / nal_hrd=none / ip_ratio=1.40 / pb_ratio=1.30 / aq=1:0.80
Language                       : English
Default                        : Yes
Forced                         : No
Audio #1
ID                             : 2
Format                         : AC-3
Format/Info                    : Audio Coding 3
Mode extension                 : CM (complete main)
Format settings, Endianness    : Big
Codec ID                       : A_AC3
Duration                       : 1h 31mn
Bit rate mode                  : Constant
Bit rate                       : 448 Kbps
Channel(s)                     : 6 channels
Channel positions              : Front: L C R, Side: L R, LFE
Sampling rate                  : 48.0 KHz
Bit depth                      : 16 bits
Compression mode               : Lossy
Stream size                    : 294 MiB (11%)
Title                          : DUB R5
Language                       : Russian
Default                        : Yes
Forced                         : No
Audio #2
ID                             : 3
Format                         : AC-3
Format/Info                    : Audio Coding 3
Mode extension                 : CM (complete main)
Format settings, Endianness    : Big
Codec ID                       : A_AC3
Duration                       : 1h 31mn
Bit rate mode                  : Constant
Bit rate                       : 640 Kbps
Channel(s)                     : 6 channels
Channel positions              : Front: L C R, Side: L R, LFE
Sampling rate                  : 48.0 KHz
Bit depth                      : 16 bits
Compression mode               : Lossy
Stream size                    : 421 MiB (16%)
Title                          : Original
Language                       : French
Default                        : No
Forced                         : No
Menu
00:00:00.000                   : :Chapter 01
00:06:30.500                   : :Chapter 02
00:15:49.916                   : :Chapter 03
00:22:09.541                   : :Chapter 04
00:31:07.166                   : :Chapter 05
00:38:02.500                   : :Chapter 06
00:44:55.125                   : :Chapter 07
00:53:15.541                   : :Chapter 08
01:02:37.541                   : :Chapter 09
01:07:48.208                   : :Chapter 10
01:17:01.083                   : :Chapter 11
01:26:40.708                   : :Chapter 12

_________________
[Торрент-статистика]
[Профиль]  [ЛС] 
Показать сообщения:    
Ответить на тему

Текущее время: Сегодня 10:57

Часовой пояс: GMT + 4



Вы не можете начинать темы
Вы не можете отвечать на сообщения
Вы не можете редактировать свои сообщения
Вы не можете удалять свои сообщения
Вы не можете голосовать в опросах
Вы не можете прикреплять файлы к сообщениям
Вы не можете скачивать файлы