Я - Сэм / I Am Sam (Джесси Нелсон / Jessie Nelson) [2001 г., Драма, BDRip 720p]

Ответить на тему
 
Автор
Сообщение

awk05 ®

Пол:

Стаж: 8 лет 10 месяцев

Сообщений: 1334

Репутация: 278 [+] [-]

Откуда: Западная Украина Ривне

Пост 31-Июл-2014 19:42

[Цитировать] 

--Я - Сэм / I Am Sam«Тебе нужна была любовь»-- Год выпуска: 2001
Страна: США
Жанр: Драма
Продолжительность: 02:12:18
Перевод: Профессиональный (многоголосый закадровый) (с лицензии Universal Pictures Rus) + Профессиональный (многоголосый закадровый) (с переиздания R1)
Русские субтитры: есть--Режиссер: Джесси Нелсон / Jessie Nelson --
В ролях: Шон Пенн (Sam Dawson), Мишель Пфайффер (Rita Harrison Williams), Дакота Фаннинг (Lucy Diamond Dawson), Дайэнн Уист (Annie Cassell), Лоретта Дивайн (Margaret Calgrove), Ричард Шифф (Mr. Turner), Лора Дерн (Randy Carpenter), Брэд Силверман (Brad), Стэнли ДеСантис (Robert), Даг Хатчисон (Ifty), Розалинд Чао (Lily), Кен Дженкинс (Judge Philip McNeily), и др.--Описание: Умственное развитие Сэма Доусона остановилось на уровне семилетнего ребенка, но он как может старается стать полноценным членом общества. Однажды он дает приют беременной женщине, которая, родив очаровательную девочку, оставляет Сэма с младенцем на руках.
С этого момента Доусон посвящает всего себя дочке, которую называет Люси — в честь героини одной из песен своей любимой группы Beatles. Но проходит семь лет, и Люси становится умнее своего отца, что вынуждает социальных работников поставить на суде вопрос о лишении его родительских прав.
Спасение приходит в лице женщины-адвоката Риты, соглашающейся взяться за дело Сэма бесплатно.--Качество видео: BDRip 720p
Формат видео: MKV
Видео кодек: AVC (High@L4.1)
Аудио кодек: AC-3, DTS
Видео: AVC, 1280x696 (16:9), 23.976 fps, 7 088 Kbps (0.332 bit/pixel)
Аудио 1: AC-3, 48.0 KHz, 6 ch, 384 Kbps, CBR, 16 бит [RUS]
Аудио 2: AC-3, 48.0 KHz, 6 ch, 384 Kbps, CBR, 16 бит [RUS]
Аудио 3: DTS , 48.0 KHz, 6 ch, 1510 Kbps, CBR, 24 бит [ENG] -- --

Знаете ли Вы, что...

* Кинокомпания “New Line Cinema” долго решала, как назвать этот фильм. В конце концов, остановились на “I am Sam”, что отсылает к книге доктора Сьюза “Зеленые яйца и ветчина”.
* Так как главный герой является большим поклонником “Beatles”, то саундтрэк составили песни ливерпульской четверки в исполнении музыкальных звезд сегодняшнего дня, таких как Ник Кейв, Сара МакЛахлан, Шерил Кроу, Эдди Веддер, “The Wallflowers” и др.
* В фильме приняли участие три человека с ограниченными возможностями, играя самих себя: Эндри Стэнли, Джо Розенберг и Брайан Бьялик. Они являются членами организации, именующейся L.A. GOAL (Лос-Анджелесская ЦЕЛЬ), которая работает с задерживающимися в развитии людьми.

Кадры из фильма

Тех. данные (MI)

Код:
Общее
Уникальный идентификатор                 : 243646513219102787533007744917724077921 (0xB74C9C8F8D2ACC6FA4C0F3EBF4D61F61)
Полное имя                               : G:\тест\I Am Sam.2001.BD.Rip.720p.h264.2xRus.Eng.mkv
Формат                                   : Matroska
Версия формата                           : Version 2
Размер файла                             : 8,65 Гбайт
Продолжительность                        : 2 ч. 12 м.
Общий поток                              : 9363 Кбит/сек
Дата кодирования                         : UTC 2010-07-14 19:15:57
Программа кодирования                    : mkvmerge v3.4.0 ('Rapunzel') built on May 15 2010 09:38:20
Библиотека кодирования                   : libebml v0.8.0 + libmatroska v0.9.0
Видео
Идентификатор                            : 1
Формат                                   : AVC
Формат/Информация                        : Advanced Video Codec
Профиль формата                          : High@L4.1
Параметр CABAC формата                   : Да
Параметр ReFrames формата                : 7 кадров
Идентификатор кодека                     : V_MPEG4/ISO/AVC
Продолжительность                        : 2 ч. 12 м.
Битрейт                                  : 7088 Кбит/сек
Ширина                                   : 1280 пикселей
Высота                                   : 696 пикселей
Соотношение сторон                       : 1,85:1
Режим частоты кадров                     : Постоянный
Частота кадров                           : 23,976 кадра/сек
Цветовое пространство                    : YUV
Субдискретизация насыщенности            : 4:2:0
Битовая глубина                          : 8 бит
Тип развёртки                            : Прогрессивная
Бит/(Пиксели*Кадры)                      : 0.332
Размер потока                            : 6,38 Гбайт (74%)
Библиотека кодирования                   : x264 core 102 r1666 d058f37
Настройки программы                      : cabac=1 / ref=7 / deblock=1:0:0 / analyse=0x3:0x113 / me=umh / subme=9 / psy=1 / psy_rd=1.00:0.00 / mixed_ref=1 / me_range=16 / chroma_me=1 / trellis=1 / 8x8dct=1 / cqm=0 / deadzone=21,11 / fast_pskip=0 / chroma_qp_offset=-2 / threads=24 / sliced_threads=0 / nr=0 / decimate=1 / interlaced=0 / constrained_intra=0 / bframes=3 / b_pyramid=2 / b_adapt=1 / b_bias=0 / direct=1 / weightb=1 / open_gop=0 / weightp=2 / keyint=250 / keyint_min=25 / scenecut=40 / intra_refresh=0 / rc_lookahead=40 / rc=2pass / mbtree=1 / bitrate=7088 / ratetol=1.0 / qcomp=0.60 / qpmin=10 / qpmax=51 / qpstep=4 / cplxblur=20.0 / qblur=0.5 / ip_ratio=1.40 / aq=1:1.00
Язык                                     : English
Default                                  : Да
Forced                                   : Нет
Аудио #1
Идентификатор                            : 2
Формат                                   : AC-3
Формат/Информация                        : Audio Coding 3
Расширение режима                        : CM (complete main)
Параметр Endianness формата              : Big
Идентификатор кодека                     : A_AC3
Продолжительность                        : 2 ч. 12 м.
Вид битрейта                             : Постоянный
Битрейт                                  : 384 Кбит/сек
Каналы                                   : 6 каналов
Расположение каналов                     : Front: L C R, Side: L R, LFE
Частота                                  : 48,0 КГц
Битовая глубина                          : 16 бит
Метод сжатия                             : С потерями
Размер потока                            : 363 Мбайт (4%)
Заголовок                                : MVO Universal Pictures Rus AC3 5.1 384 kbps
Язык                                     : Russian
Default                                  : Да
Forced                                   : Нет
Аудио #2
Идентификатор                            : 3
Формат                                   : AC-3
Формат/Информация                        : Audio Coding 3
Расширение режима                        : CM (complete main)
Параметр Endianness формата              : Big
Идентификатор кодека                     : A_AC3
Продолжительность                        : 2 ч. 12 м.
Вид битрейта                             : Постоянный
Битрейт                                  : 384 Кбит/сек
Каналы                                   : 6 каналов
Расположение каналов                     : Front: L C R, Side: L R, LFE
Частота                                  : 48,0 КГц
Битовая глубина                          : 16 бит
Метод сжатия                             : С потерями
Размер потока                            : 363 Мбайт (4%)
Заголовок                                : MVO R1 AC3 5.1 384 kbps
Язык                                     : Russian
Default                                  : Нет
Forced                                   : Нет
Аудио #3
Идентификатор                            : 4
Формат                                   : DTS
Формат/Информация                        : Digital Theater Systems
Режим                                    : 16
Параметр Endianness формата              : Big
Идентификатор кодека                     : A_DTS
Продолжительность                        : 2 ч. 12 м.
Вид битрейта                             : Постоянный
Битрейт                                  : 1509 Кбит/сек
Каналы                                   : 6 каналов
Расположение каналов                     : Front: L C R, Side: L R, LFE
Частота                                  : 48,0 КГц
Битовая глубина                          : 16 бит
Метод сжатия                             : С потерями
Размер потока                            : 1,39 Гбайт (16%)
Заголовок                                : DTS 5.1 1536 kbps
Язык                                     : English
Default                                  : Нет
Forced                                   : Нет
Текст #1
Идентификатор                            : 5
Формат                                   : UTF-8
Идентификатор кодека                     : S_TEXT/UTF8
Идентификатор кодека/Информация          : UTF-8 Plain Text
Заголовок                                : Universal Pictures Rus
Язык                                     : Russian
Default                                  : Нет
Forced                                   : Нет
Текст #2
Идентификатор                            : 6
Формат                                   : UTF-8
Идентификатор кодека                     : S_TEXT/UTF8
Идентификатор кодека/Информация          : UTF-8 Plain Text
Заголовок                                : E. Klavdienko
Язык                                     : Russian
Default                                  : Нет
Forced                                   : Нет
Текст #3
Идентификатор                            : 7
Формат                                   : UTF-8
Идентификатор кодека                     : S_TEXT/UTF8
Идентификатор кодека/Информация          : UTF-8 Plain Text
Язык                                     : English
Default                                  : Нет
Forced                                   : Нет

_________________
[Торрент-статистика]
[Профиль]  [ЛС] 
Показать сообщения:    
Ответить на тему

Текущее время: Сегодня 04:03

Часовой пояс: GMT + 4



Вы не можете начинать темы
Вы не можете отвечать на сообщения
Вы не можете редактировать свои сообщения
Вы не можете удалять свои сообщения
Вы не можете голосовать в опросах
Вы не можете прикреплять файлы к сообщениям
Вы не можете скачивать файлы