Личное / Personal Effects (Дэвид Холландер / David Hollander) [2009 г., Драма, BDRip 720p] MVO (R5) + orig + sub (rus)

Ответить на тему
 
Автор
Сообщение

awk05 ®

Пол:

Стаж: 8 лет 9 месяцев

Сообщений: 1334

Репутация: 278 [+] [-]

Откуда: Западная Украина Ривне

Пост 30-Июл-2014 23:26

[Цитировать] 

--Личное / Personal Effects«Иногда любовь - единственное лекарство»-- Год выпуска: 2009
Страна: США, P.E. Productions
Жанр: Драма
Продолжительность: 01:50:17
Перевод: Профессиональный (многолосый) Лицензия
Русские субтитры: есть--Режиссер: Дэвид Холландер / David Hollander--В ролях: Мишель Пфайффер (Linda), Эштон Кутчер (Walter), Кэти Бейтс (Gloria), Джон Манн (Hank), Дэвид Льюис (Brice), Роб ЛаБелль (Camden), Алекс Паунович (Tom), Брайан Маркинсон (Finneran), Сара Линд (Annie), Алиса Сковбай (Beth), Кайл Той (Jose), Дин Рэй (Larry), Брок Джонсон (Mark), и др.--Описание: Молодой человек переезжает в маленький городок для того, чтобы отомстить за смерть своей сестры. В этом городе он знакомится с Линдой, женщиной намного старше него, и влюбляется. У Линды тоже не все так гладко на душе, она намеревается отомстить за смерть своего мужа…--Качество видео: BDRip 720p
Формат видео: MKV
Видео кодек: AVC (High@L4.1)
Аудио кодек: AC-3
Видео: AVC, 1280x688 (1.860), 23.976 fps, 5 228 Kbps (0.248 bit/pixel)
Аудио 1: AC-3, 48.0 KHz, 6 ch, 448 Kbps, CBR, 16 бит [RUS]
Аудио 2: AC-3, 48.0 KHz, 6 ch, 448 Kbps, CBR, 16 бит [ENG] -- --

Кадры из фильма

Тех. данные (MI)

Код:
Complete name : Personaleff.720p.mkv
Format : Matroska
File size : 4.71 GiB
Duration : 1h 50mn
Overall bit rate : 6 109 Kbps
Encoded date : UTC 2010-04-30 20:42:06
Writing application : mkvmerge v2.4.0 ('Fumbling Towards Ecstasy') built on Oct 11 2008 20:13:15
Writing library : libebml v0.7.7 + libmatroska v0.8.1
Video #1
ID : 1
Format : AVC
Format/Info : Advanced Video Codec
Format profile : High@L4.1
Format settings, CABAC : Yes
Format settings, ReFrames : 5 frames
Muxing mode : Container profile=Unknown@4.1
Codec ID : V_MPEG4/ISO/AVC
Duration : 1h 50mn
Bit rate : 5 091 Kbps
Nominal bit rate : 5 228 Kbps
Width : 1 280 pixels
Height : 688 pixels
Display aspect ratio : 1.860
Frame rate : 23.976 fps
Resolution : 8 bits
Colorimetry : 4:2:0
Scan type : Progressive
Bits/(Pixel*Frame) : 0.241
Stream size : 3.92 GiB (83%)
Writing library : x264 core 66 r1114M a933a3e
Encoding settings : cabac=1 / ref=5 / deblock=1:0:0 / analyse=0x3:0x2 / me=umh / subme=7 / psy_rd=1.0:0.0 / mixed_ref=1 / me_range=16 / chroma_me=1 / trellis=1 / 8x8dct=1 / cqm=0 / deadzone=21,11 / chroma_qp_offset=-2 / threads=6 / nr=0 / decimate=1 / mbaff=0 / bframes=3 / b_pyramid=1 / b_adapt=1 / b_bias=0 / direct=1 / wpredb=1 / keyint=250 / keyint_min=25 / scenecut=40(pre) / rc=2pass / bitrate=5228 / ratetol=1.0 / qcomp=0.60 / qpmin=10 / qpmax=51 / qpstep=4 / cplxblur=20.0 / qblur=0.5 / ip_ratio=1.40 / pb_ratio=1.30 / aq=1:1.0
Language : English
Audio #2
ID : 2
Format : AC-3
Format/Info : Audio Coding 3
Codec ID : A_AC3
Duration : 1h 50mn
Bit rate mode : Constant
Bit rate : 448 Kbps
Channel(s) : 6 channels
Channel positions : Front: L C R, Surround: L R, LFE
Sampling rate : 48.0 KHz
Stream size : 353 MiB (7%)
Language : Russian
Audio #3
ID : 3
Format : AC-3
Format/Info : Audio Coding 3
Codec ID : A_AC3
Duration : 1h 50mn
Bit rate mode : Constant
Bit rate : 448 Kbps
Channel(s) : 6 channels
Channel positions : Front: L C R, Surround: L R, LFE
Sampling rate : 48.0 KHz
Stream size : 353 MiB (7%)
Language : English
Text #4
ID : 4
Format : UTF-8
Codec ID : S_TEXT/UTF8
Codec ID/Info : UTF-8 Plain Text
Language : Russian

_________________
[Торрент-статистика]
[Профиль]  [ЛС] 
Показать сообщения:    
Ответить на тему

Текущее время: Сегодня 11:40

Часовой пояс: GMT + 4



Вы не можете начинать темы
Вы не можете отвечать на сообщения
Вы не можете редактировать свои сообщения
Вы не можете удалять свои сообщения
Вы не можете голосовать в опросах
Вы не можете прикреплять файлы к сообщениям
Вы не можете скачивать файлы