Люди как мы / People Like Us (Алекс Куртцман / Alex Kurtzman)[2012 г., драма, BDRip 720p]MVO + AVO + Sub

Ответить на тему
 
Автор
Сообщение

awk05 ®

Пол:

Стаж: 8 лет 9 месяцев

Сообщений: 1334

Репутация: 278 [+] [-]

Откуда: Западная Украина Ривне

Пост 30-Июл-2014 21:52

[Цитировать] 

--Люди как мы / People Like Us«Find your family»-- Страна: США
Студия: DreamWorks SKG / Kurtzman Orci Paper Products / Reliance Entertainment
Жанр: драма
Год выпуска: 2012
Продолжительность: 01:54:36
Перевод 1: Профессиональный (многоголосый закадровый)
Перевод 2: Одноголосый закадровый А. Дасевич
Cубтитры: русские, английские
Оригинальная аудиодорожка: английский--Режиссер: Алекс Куртцман / Alex Kurtzman--В ролях: Крис Пайн(Sam), Элизабет Бэнкс (Frankie), Майкл Холл Д’Аддарио (Josh), Мишель Пфайффер(Lillian), Оливия Уайлд (Hannah), Марк Дюпласс (Ted), Сара Морнелл(Dr. Amanda), Филип Бейкер Холлl(Ike Rafferty), Дин Чеквала (Jerry), Барбара Ив Харрис (Mrs. Haney), Дэвид Баррус (Derek), Джозеф Уайз (Danny), и др.--Описание: История молодого бизнесмена, который должен доставить 150 000 долларов своей сестре-алкоголичке. Проблема в том, что герой со своей родственницей знаком не был и узнал о ее существовании только после смерти отца. Познакомившись с ней, он не сообщает о своем родстве, но вмешивается в жизнь сестры и ее 12-летнего сына.--Качество видео: BDRip 720p
Формат видео: MKV
Видео кодек: AVC (High@L4.1)
Аудио кодек: AC-3
Видео: AVC, 1280x544 (2.35:1), 23.976 fps, 6 800 Kbps (0.407 bit/pixel)
Аудио 1: AC-3, 48.0 KHz, 6 ch, 640 Kbps, CBR, 16 бит [RUS]
Аудио 2: AC-3, 48.0 KHz, 6 ch, 1510 Kbps, CBR, 24 бит [RUS]
Аудио 3: AC-3, 48.0 KHz, 6 ch, 1510 Kbps, CBR, 24 бит [ENG] -- --

Тех. данные (MI)

Общее
Уникальный идентификатор : 173730363528633496535553292458859716602 (0x82B3403D66B33BF388B2DA0FD4385FFA)
Полное имя : F:Ljudi.kak.my.2012.D.BDRip.720p.MVO.VO.mkv
Формат : Matroska
Размер файла : 8,38 Гбайт
Продолжительность : 1 ч. 54 м.
Общий поток : 10,4 Мбит/сек
Название фильма : IRONCLUB
Дата кодирования : UTC 2012-12-20 18:21:52
Программа кодирования : mkvmerge v5.8.0 ('No Sleep / Pillow') built on Sep 2 2012 15:37:04
Библиотека кодирования : libebml v1.2.3 + libmatroska v1.3.0
Видео
Идентификатор : 1
Формат : AVC
Формат/Информация : Advanced Video Codec
Профиль формата : High@L4.1
Параметр CABAC формата : Да
Параметр ReFrames формата : 11 кадров
Идентификатор кодека : V_MPEG4/ISO/AVC
Продолжительность : 1 ч. 54 м.
Битрейт : 6800 Кбит/сек
Ширина : 1280 пикс.
Высота : 544 пикс.
Соотношение сторон : 2,35:1
Частота кадров : 23,976 кадр/сек
Цветовое пространство : YUV
Подвыборка цветности : 4:2:0
Битовая глубина : 8 бит
Тип развёртки : Прогрессивная
Бит/(Пиксели*Кадры) : 0.407
Размер потока : 5,28 Гбайт (63%)
Заголовок : People Like Us 2012 720p Bluray DTS x264-TayTO
Библиотека кодирования : x264 core 125 r2200 999b753
Настройки программы : cabac=1 / ref=11 / deblock=1:-3:-3 / analyse=0x3:0x113 / me=esa / subme=10 / psy=1 / psy_rd=1.05:0.00 / mixed_ref=1 / me_range=16 / chroma_me=1 / trellis=2 / 8x8dct=1 / cqm=0 / deadzone=21,11 / fast_pskip=0 / chroma_qp_offset=-3 / threads=6 / lookahead_threads=1 / sliced_threads=0 / nr=0 / decimate=0 / interlaced=0 / bluray_compat=0 / constrained_intra=0 / bframes=7 / b_pyramid=2 / b_adapt=2 / b_bias=0 / direct=3 / weightb=1 / open_gop=0 / weightp=2 / keyint=240 / keyint_min=23 / scenecut=40 / intra_refresh=0 / rc_lookahead=192 / rc=2pass / mbtree=1 / bitrate=6800 / ratetol=1.0 / qcomp=0.50 / qpmin=0 / qpmax=69 / qpstep=4 / cplxblur=20.0 / qblur=0.5 / ip_ratio=1.40 / aq=1:0.85 / zones=1,1300,b=0.45/156864,164873,b=0.35
Язык : English
Коэффициенты матрицы : BT.709-5, BT.1361, IEC 61966-2-4 709, SMPTE RP177
Аудио #1
Идентификатор : 2
Формат : AC-3
Формат/Информация : Audio Coding 3
Расширение режима : CM (complete main)
Идентификатор кодека : A_AC3
Продолжительность : 1 ч. 54 м.
Вид битрейта : Постоянный
Битрейт : 640 Кбит/сек
Каналы : 6 каналов
Расположение каналов : Front: L C R, Side: L R, LFE
Частота : 48,0 КГц
Битовая глубина : 16 бит
Метод сжатия : С потерями
Размер потока : 525 Мбайт (6%)
Заголовок : DD 5.1 @ 640 kbps - MVO, BD EUR
Язык : Russian
Аудио #2
Идентификатор : 3
Формат : DTS
Формат/Информация : Digital Theater Systems
Идентификатор кодека : A_DTS
Продолжительность : 1 ч. 54 м.
Вид битрейта : Постоянный
Битрейт : 1510 Кбит/сек
Каналы : 6 каналов
Расположение каналов : Front: L C R, Side: L R, LFE
Частота : 48,0 КГц
Битовая глубина : 24 бит
Метод сжатия : С потерями
Размер потока : 1,21 Гбайт (14%)
Язык : Russian
Аудио #3
Идентификатор : 4
Формат : DTS
Формат/Информация : Digital Theater Systems
Идентификатор кодека : A_DTS
Продолжительность : 1 ч. 54 м.
Вид битрейта : Постоянный
Битрейт : 1510 Кбит/сек
Каналы : 6 каналов
Расположение каналов : Front: L C R, Side: L R, LFE
Частота : 48,0 КГц
Битовая глубина : 24 бит
Метод сжатия : С потерями
Размер потока : 1,21 Гбайт (14%)
Заголовок : DTS 5.1 @ 1536 kbps
Язык : English
Текст #1
Идентификатор : 5
Формат : UTF-8
Идентификатор кодека : S_TEXT/UTF8
Идентификатор кодека/Информация : UTF-8 Plain Text
Язык : Russian
Текст #2
Идентификатор : 6
Формат : UTF-8
Идентификатор кодека : S_TEXT/UTF8
Идентификатор кодека/Информация : UTF-8 Plain Text
Заголовок : English subtitle
Язык : English
Меню
00:00:00.000 : en:00:00:00.000
00:05:05.847 : en:00:05:05.847
00:08:45.191 : en:00:08:45.191
00:14:08.347 : en:00:14:08.347
00:17:54.448 : en:00:17:54.448
00:22:55.958 : en:00:22:55.958
00:28:37.174 : en:00:28:37.174
00:33:08.987 : en:00:33:08.987
00:36:25.767 : en:00:36:25.767
00:42:00.935 : en:00:42:00.935
00:47:00.901 : en:00:47:00.901
00:53:29.289 : en:00:53:29.289
01:03:52.245 : en:01:03:52.245
01:06:44.959 : en:01:06:44.959
01:13:26.277 : en:01:13:26.277
01:17:52.668 : en:01:17:52.668
01:21:42.189 : en:01:21:42.189
01:31:17.514 : en:01:31:17.514
01:37:21.419 : en:01:37:21.419
01:40:47.625 : en:01:40:47.625
01:48:14.822 : en:01:48:14.822

Кадры из фильма


_________________
[Торрент-статистика]
[Профиль]  [ЛС] 
Показать сообщения:    
Ответить на тему

Текущее время: Сегодня 05:55

Часовой пояс: GMT + 4



Вы не можете начинать темы
Вы не можете отвечать на сообщения
Вы не можете редактировать свои сообщения
Вы не можете удалять свои сообщения
Вы не можете голосовать в опросах
Вы не можете прикреплять файлы к сообщениям
Вы не можете скачивать файлы