Неудержимые 3 / The Expendables 3(Патрик Хьюз / Patrick Hughes)[2014 г., Боевик, Триллер, Приключения, HZRip 720p] MVO BaibaKo

Ответить на тему
 
Автор
Сообщение

awk05 ®

Пол:

Стаж: 4 года 5 месяцев

Сообщений: 1352

Репутация: 275 [+] [-]

Откуда: Западная Украина Ривне

Пост 29-Июл-2014 22:07

[Цитировать] 

--Неудержимые 3 / The Expendables 3
Сборная Голливуда снова в игре
-- Год выпуска: 2014
Страна: США
Жанр: Боевик, Триллер, Приключения
Продолжительность: 02:06:16
Перевод: Профессиональный многоголосый BaibaKo
Субтитры: отсутствуют--Режиссер: Патрик Хьюз / Patrick Hughes --
В ролях: Сильвестр Сталлоне (Barney Ross), Джейсон Стэйтем (Lee Christmas), Мэл Гибсон (Conrad Stonebanks), Арнольд Шварценеггер (Trench), Харрисон Форд (Max Drummer), Антонио Бандерас (Galgo), Уэсли Снайпс (Doc), Дольф Лундгрен (Gunner Jensen), Джет Ли (Yin Yang), Терри Крюс (Hale Caesar), Келси Грэммер (Bonaparte), Рэнди Кутюр (Toll Road), и др.--Описание: Барни, Кристмас и остальные члены команды сходятся лицом к лицу с Конрадом Стоунбэнксом, многие годы назад основавшем вместе с Барни команду «Неудержимых». Впоследствии Стоунбэнкс становится безжалостным торговцем оружием и тем самым превращается в человека, которого Барни было поручено убить. Или по крайней мере он сам так считал. Теперь Стоунбэнкс, один раз уже сумевший обмануть смерть, поставил себе цель покончить с «Неудержимыми» — но у Барни на этот счет свои планы. Барни решает, что в его борьбе «свежий» подход можно противопоставить старым методам, и пополняет ряды людьми, которые моложе, быстрее и технически более подкованные. Так у членов команды «Неудержимых» начинается новая эра. Последняя миссия превращается в столкновение между представителями классической старой школы и экспертами в высоких технологиях.--Качество видео: HZRip 720p
Формат видео: MKV
Видео кодек: AVC (High@L4.1)
Аудио кодек: AC-3
Видео: AVC, 1280x552 (2.35:1), 23.976 fps, 3 873 Kbps (0.229 bit/pixel)
Аудио 1: AC-3, 48.0 KHz, 2 ch, 384 Kbps, CBR, 16 бит [RUS]
Аудио 2: AC-3, 48.0 KHz, 2 ch, 224 Kbps, CBR, 16 бит [ENG] -- --Внимание: о происхождение рипа ничего сказать не могу. Однозначно он лучше чем DVD5 имеющийся в сети, сравнивал: немного чётче, не квадратит, по крайней мере на сравнении на попалось.
Однако, во избежании не оправдавшихся ожиданий, скачайте сэмпл до скачивания и просмотра фильма и убедитесь, что качество вас устраивает.

Знаете ли Вы, что...

* На роль Камиллы рассматривалась Милла Йовович, но в итоге она отказалась в связи с занятостью в проектах «Обитель зла 6» (2014) и «Цимбелин» (2014).
* Во время съемок сцены в грузовике с Джейсоном Стэйтемом произошла авария — из-за того, что отказали тормоза, грузовик упал в море. Актер не пострадал.
* Сильвестр Сталлоне предлагал роль второго плана Джеки Чану, но тот отказался, потому что хотел сыграть одну из главных ролей.
* Планировалось участие Жан-Клода Ван Дамма в роли брата-близнеца Жана Вилена — Клода Вилена.
* Клинту Иствуду предлагали одну из ролей, но он отказался.
* Дуэйн Джонсон и Халк Хоган были согласны играть, но им отказали.
* В фильме мог сыграть Стивен Сигал.
* Брюс Уиллис должен был сыграть роль Чёрча за гонорар в $ 3 миллиона (по $ 750,000 за каждый из четырех съемочных дней). Когда он потребовал $ 1 миллион в день, Сильвестр Сталлоне и продюсеры фильма отказали ему, после чего он покинул проект. Буквально через 3 дня Сталлоне заполучил на эту роль Харрисона Форда.
* Мэлу Гибсону предлагали не только роль главного злодея, но еще и место режиссера проекта, но от последней должности он все же отказался.
* Николас Кейдж рассматривался на роль Бонапарта, прежде чем эту роль получил Келси Грэммер.
* Микки Рурку предлагали сыграть роль Тула.
* Съёмочный период Арнольда Шварценеггера составил чуть больше недели.
* Лукас Тилл пробовался на роль Смайли, которую позже получил Келлан Латс.

Кадры из фильма

Тех. данные (MI)

Общее
Уникальный идентификатор : 232834415956864422972881502570644624104 (0xAF2A470236A18DFFAA78D17AF34DD2E8)
Полное имя : E:\тест\The Expendables.3.2014.720p.mkv
Формат : Matroska
Версия формата : Version 2
Размер файла : 4,03 Гбайт
Продолжительность : 2 ч. 6 м.
Общий поток : 4572 Кбит/сек
Дата кодирования : UTC 2014-07-29 14:14:54
Программа кодирования : mkvmerge v6.5.0 ('Isn't she lovely') built on Oct 20 2013 12:50:05
Библиотека кодирования : libebml v1.3.0 + libmatroska v1.4.1
Видео
Идентификатор : 1
Формат : AVC
Формат/Информация : Advanced Video Codec
Профиль формата : High@L4.1
Параметр CABAC формата : Да
Параметр ReFrames формата : 9 кадров
Идентификатор кодека : V_MPEG4/ISO/AVC
Продолжительность : 2 ч. 6 м.
Битрейт : 3873 Кбит/сек
Ширина : 1280 пикселей
Высота : 552 пикселя
Соотношение сторон : 2,35:1
Режим частоты кадров : Постоянный
Частота кадров : 23,976 кадра/сек
Цветовое пространство : YUV
Субдискретизация насыщенности : 4:2:0
Битовая глубина : 8 бит
Тип развёртки : Прогрессивная
Бит/(Пиксели*Кадры) : 0.229
Размер потока : 3,42 Гбайт (85%)
Библиотека кодирования : x264 core 142 r2409+42 04be48a tMod [8-bit@all X86_64]
Настройки программы : cabac=1 / ref=9 / deblock=1:-3:-3 / analyse=0x3:0x133 / me=umh / subme=11 / psy=1 / fade_compensate=0.00 / psy_rd=1.00:0.00 / mixed_ref=1 / me_range=24 / chroma_me=1 / trellis=2 / 8x8dct=1 / cqm=0 / deadzone=21,11 / fast_pskip=1 / chroma_qp_offset=-2 / threads=12 / lookahead_threads=1 / sliced_threads=0 / nr=0 / decimate=0 / interlaced=0 / bluray_compat=0 / constrained_intra=0 / fgo=0 / bframes=7 / b_pyramid=2 / b_adapt=2 / b_bias=0 / direct=1 / weightb=1 / open_gop=0 / weightp=2 / keyint=240 / keyint_min=23 / scenecut=40 / intra_refresh=0 / rc_lookahead=60 / rc=crf / mbtree=1 / crf=17.5000 / qcomp=0.60 / qpmin=0:0:0 / qpmax=69:69:69 / qpstep=4 / ip_ratio=1.40 / aq=1:0.90 / aq-sensitivity=10.00 / aq-factor=1.00:1.00:1.00 / aq2=0 / aq3=0
Язык : English
Default : Да
Forced : Нет
Аудио #1
Идентификатор : 2
Формат : AC-3
Формат/Информация : Audio Coding 3
Расширение режима : CM (complete main)
Параметр Endianness формата : Big
Идентификатор кодека : A_AC3
Продолжительность : 2 ч. 6 м.
Вид битрейта : Постоянный
Битрейт : 384 Кбит/сек
Каналы : 2 канала
Расположение каналов : Front: L R
Частота : 44,1 КГц
Битовая глубина : 16 бит
Метод сжатия : С потерями
Размер потока : 347 Мбайт (8%)
Язык : Russian
Default : Да
Forced : Да
Аудио #2
Идентификатор : 3
Формат : AC-3
Формат/Информация : Audio Coding 3
Расширение режима : CM (complete main)
Параметр Endianness формата : Big
Идентификатор кодека : A_AC3
Продолжительность : 2 ч. 6 м.
Вид битрейта : Постоянный
Битрейт : 224 Кбит/сек
Каналы : 2 канала
Расположение каналов : Front: L R
Частота : 48,0 КГц
Битовая глубина : 16 бит
Метод сжатия : С потерями
Размер потока : 202 Мбайт (5%)
Язык : English
Default : Нет
Forced : Нет

_________________
[Торрент-статистика]
[Профиль]  [ЛС] 

ArtZak

Пол:

Стаж: 5 лет 1 месяц

Сообщений: 3008

Репутация: 1363 [+] [-]

Откуда: Россия

Пост 29-Июл-2014 22:21 (спустя 14 минут)

[Цитировать] 

46876HZRip 720p
Что за рип такой?
[Торрент-статистика]
[Профиль]  [ЛС] 

awk05 ®

Пол:

Стаж: 4 года 5 месяцев

Сообщений: 1352

Репутация: 275 [+] [-]

Откуда: Западная Украина Ривне

Пост 29-Июл-2014 23:05 (спустя 44 минуты)

[Цитировать] 

не знаю по тому и хз

_________________
[Торрент-статистика]
[Профиль]  [ЛС] 

nova1980

Пол:

Стаж: 5 лет

Сообщений: 820

Репутация: 523 [+] [-]

Откуда: Одесса Мама

Пост 30-Июл-2014 22:20 (спустя 23 часа)

[Цитировать] 

Перевод BaibaKo очень порадовал!

_________________
Мои Раздачи
[Торрент-статистика]
[Профиль]  [ЛС] 

Волк

Пол:

Стаж: 5 лет

Сообщений: 689

Репутация: 292 [+] [-]

Откуда: Армения

Пост 30-Июл-2014 22:54 (спустя 34 минуты)

[Цитировать] 

Интересно только что смотрю на Baibako нет токово релиза кроме этого странно!!!
[Торрент-статистика]
[Профиль]  [ЛС] 

awk05 ®

Пол:

Стаж: 4 года 5 месяцев

Сообщений: 1352

Репутация: 275 [+] [-]

Откуда: Западная Украина Ривне

Пост 30-Июл-2014 23:15 (спустя 20 минут)

[Цитировать] 

вчера смотрел качество картинки хорошее, звук тоже.

_________________
[Торрент-статистика]
[Профиль]  [ЛС] 
Показать сообщения:    
Ответить на тему

Текущее время: Сегодня 15:35

Часовой пояс: GMT + 4



Вы не можете начинать темы
Вы не можете отвечать на сообщения
Вы не можете редактировать свои сообщения
Вы не можете удалять свои сообщения
Вы не можете голосовать в опросах
Вы не можете прикреплять файлы к сообщениям
Вы не можете скачивать файлы