Остров Головорезов / Cutthroat Island (Ренни Харлин / Renny Harlin) [1995 г., Боевик, мелодрама, приключения, семейный, BDRip 720p] MVO DVO AVO Sub

Ответить на тему
 
Автор
Сообщение

awk05 ®

Пол:

Стаж: 8 лет 10 месяцев

Сообщений: 1334

Репутация: 278 [+] [-]

Откуда: Западная Украина Ривне

Пост 27-Июл-2014 18:29

[Цитировать] 

--Остров Головорезов / Cutthroat Island
«The Course Has Been Set. There Is No Turning Back. Prepare Your Weapons.
Summon Your Courage. Discover the Adventure of a Lifetime!»
-- Год выпуска: 1995
Жанр: Боевик, мелодрама, приключения, семейный
Выпущено: Германия, США, Франция, Италия
Продолжительность: 02:04:32
Перевод: Профессиональный многоголосый, профессиональный двухголосый, авторский одноголосый
Субтитры: Русские, английские, испанские, шведские--Режиссёр: Ренни Харлин / Renny Harlin --
В ролях: Джина Дэвис (Morgan Adams), Мэттью Модайн (William Shaw), Фрэнк Ланджелла (Dawg Brown), Мори Чайкин (John Reed), Патрик Мэлахайд (Govenor Ainslee), Стэн Шоу (Glasspoole), Рекс Линн (Mr. Blair), Пол Диллон (Snelgrave, Reaper's 1st Mate), Кристофер Мастерсон (Bowen), Джимми Ф. Скэггз (Tom Scully), Харрис Юлин (Black Harry), Карл Чейз (Bishop), Энгус Райт (Capt. Trotter), Кен Бонс (Toussant), и др.--О фильме: Отважная дочь пирата Морган Эдамс жаждет отомстить за своего отца, погибшего от рук собственного брата. Ей досталась в наследство треть карты Острова Головорезов с обозначением места, где спрятаны несметные сокровища. Чтобы добраться до них, Морган набирает команду из старых боевых товарищей отца.
На аукционе рабов в Порт-Ройяле на Ямайке она покупает авантюриста и проходимца Уильяма Шоу, у которого оказывается вторая часть карты. Но главная проблема в том, что последняя часть карты находится у злого и коварного дяди Морган — пирата по прозвищу «Дог»…--Качество видео: BDRip 720p
Формат видео: MKV
Видео кодек: AVC (High@L4.1)
Аудио кодек: AC-3, DTS
Видео: AVC, 1280x544 (2.35:1), 23.976 fps, 6 074 Kbps (0.364 bit/pixel)
Аудио 1: DTS, 48.0 KHz, 6 ch, 755 Kbps, CBR, 24 бит [RUS] MVO Позитив-Мультимедиа
Аудио 2: AC-3, 48.0 KHz, 6 ch, 448 Kbps, CBR, 16 бит [RUS] MVO Киномания
Аудио 3: DTS, 48.0 KHz, 6 ch, 1510 Kbps, CBR, 16 бит [RUS] DVO П.Гланц и И.Королева
Аудио 4: DTS, 48.0 KHz, 6 ch, 755 Kbps, CBR, 16 бит [RUS] AVO А.Гаврилов
Аудио 5: DTS, 48.0 KHz, 6 ch, 1510 Kbps, CBR, 24 бит [RUS] AVO Ю.Живов
Аудио 6: DTS, 48.0 KHz, 6 ch, 1510 Kbps, CBR, 24 бит [ENG] -- --

Знаете ли Вы, что...

* Фирменный пистолет Дога, с рукояткой, украшенной черепом, позже был использован для съёмок трилогии «Пираты Карибского моря», где достался капитану Барбоссе.
* Фильм побил рекорд по самым крупным кассовым убыткам: вернул лишь 11 из 100 вложенных в него миллионов долларов. Причина провала — бездарная рекламная кампания. Из-за кассового провала фильма студия «Carolco», имевшая к тому времени на своем счету такой блокбастер как «Терминатор 2: Судный день» (1991), разорилась и пошла с молотка.
Ошибки в фильме
* В сцене побега из Порт-Ройал в кадре виден современный флаг Финляндии, что является исторической неточностью.

Кадры из фильма

Тех. данные (MI)

Общее
Уникальный идентификатор : 254736022893381805415006066897473172743 (0xBFA45F99CB0DA49B9E9D7D207202F507)
Полное имя : G:\тест\Cutthroat.Island.1995.720p.BluRay.Rus.Eng.HDclub.mkv
Формат : Matroska
Версия формата : Version 2
Размер файла : 10,9 Гбайт
Продолжительность : 2 ч. 4 м.
Общий поток : 12,5 Мбит/сек
Название фильма : Cutthroat Island (1995) - Release for HDClub
Дата кодирования : UTC 2010-01-24 19:20:53
Программа кодирования : mkvmerge v2.9.0 ('Moanin'') built on May 22 2009 17:46:31
Библиотека кодирования : libebml v0.7.7 + libmatroska v0.8.1
Видео
Идентификатор : 1
Формат : AVC
Формат/Информация : Advanced Video Codec
Профиль формата : High@L4.1
Параметр CABAC формата : Да
Параметр ReFrames формата : 12 кадров
Идентификатор кодека : V_MPEG4/ISO/AVC
Продолжительность : 2 ч. 4 м.
Битрейт : 6074 Кбит/сек
Ширина : 1280 пикселей
Высота : 544 пикселя
Соотношение сторон : 2,35:1
Режим частоты кадров : Постоянный
Частота кадров : 23,976 кадра/сек
Цветовое пространство : YUV
Субдискретизация насыщенности : 4:2:0
Битовая глубина : 8 бит
Тип развёртки : Прогрессивная
Бит/(Пиксели*Кадры) : 0.364
Размер потока : 5,05 Гбайт (46%)
Заголовок : Release for HDClub
Библиотека кодирования : x264 core 68 r1183M f21daff
Настройки программы : cabac=1 / ref=12 / deblock=1:-3:-3 / analyse=0x3:0x113 / me=umh / subme=9 / psy_rd=0.8:0.7 / mixed_ref=1 / me_range=32 / chroma_me=1 / trellis=2 / 8x8dct=1 / cqm=0 / deadzone=21,11 / chroma_qp_offset=-4 / threads=6 / nr=0 / decimate=1 / mbaff=0 / bframes=4 / b_pyramid=0 / b_adapt=2 / b_bias=0 / direct=3 / wpredb=1 / keyint=250 / keyint_min=25 / scenecut=40 / rc=2pass / bitrate=6074 / ratetol=1.0 / qcomp=0.60 / qpmin=10 / qpmax=51 / qpstep=4 / cplxblur=20.0 / qblur=0.5 / vbv_maxrate=50000 / vbv_bufsize=50000 / ip_ratio=1.40 / pb_ratio=1.30 / aq=1:0.70
Язык : English
Default : Да
Forced : Нет
Аудио #1
Идентификатор : 2
Формат : DTS
Формат/Информация : Digital Theater Systems
Режим : 16
Параметр Endianness формата : Big
Идентификатор кодека : A_DTS
Продолжительность : 2 ч. 4 м.
Вид битрейта : Постоянный
Битрейт : 755 Кбит/сек
Каналы : 6 каналов
Расположение каналов : Front: L C R, Side: L R, LFE
Частота : 48,0 КГц
Битовая глубина : 24 бит
Метод сжатия : С потерями
Размер потока : 674 Мбайт (6%)
Заголовок : DTS 5.1 @ 768 Многоголосый закадровый - Позитив-мультимедиа
Язык : Russian
Default : Да
Forced : Нет
Аудио #2
Идентификатор : 3
Формат : AC-3
Формат/Информация : Audio Coding 3
Расширение режима : CM (complete main)
Параметр Endianness формата : Big
Идентификатор кодека : A_AC3
Продолжительность : 2 ч. 4 м.
Вид битрейта : Постоянный
Битрейт : 448 Кбит/сек
Каналы : 6 каналов
Расположение каналов : Front: L C R, Side: L R, LFE
Частота : 48,0 КГц
Битовая глубина : 16 бит
Метод сжатия : С потерями
Размер потока : 400 Мбайт (4%)
Заголовок : AC3 5.1 @ 448 Многоголосый закадровый - Киномания
Язык : Russian
Default : Нет
Forced : Нет
Аудио #3
Идентификатор : 4
Формат : DTS
Формат/Информация : Digital Theater Systems
Режим : 16
Параметр Endianness формата : Big
Идентификатор кодека : A_DTS
Продолжительность : 2 ч. 4 м.
Вид битрейта : Постоянный
Битрейт : 1509 Кбит/сек
Каналы : 6 каналов
Расположение каналов : Front: L C R, Side: L R, LFE
Частота : 48,0 КГц
Битовая глубина : 16 бит
Метод сжатия : С потерями
Размер потока : 1,32 Гбайт (12%)
Заголовок : DTS 5.1 @ 1536 Двухголосый закадровый - П.Гланц и И.Королева
Язык : Russian
Default : Нет
Forced : Нет
Аудио #4
Идентификатор : 5
Формат : DTS
Формат/Информация : Digital Theater Systems
Режим : 16
Параметр Endianness формата : Big
Идентификатор кодека : A_DTS
Продолжительность : 2 ч. 4 м.
Вид битрейта : Постоянный
Битрейт : 755 Кбит/сек
Каналы : 6 каналов
Расположение каналов : Front: L C R, Side: L R, LFE
Частота : 48,0 КГц
Битовая глубина : 24 бит
Метод сжатия : С потерями
Размер потока : 674 Мбайт (6%)
Заголовок : DTS 5.1 @ 768 Одноголосый закадровый - А.Гаврилов
Язык : Russian
Default : Нет
Forced : Нет
Аудио #5
Идентификатор : 6
Формат : DTS
Формат/Информация : Digital Theater Systems
Режим : 16
Параметр Endianness формата : Big
Идентификатор кодека : A_DTS
Продолжительность : 2 ч. 4 м.
Вид битрейта : Постоянный
Битрейт : 1510 Кбит/сек
Каналы : 6 каналов
Расположение каналов : Front: L C R, Side: L R, LFE
Частота : 48,0 КГц
Битовая глубина : 24 бит
Метод сжатия : С потерями
Размер потока : 1,32 Гбайт (12%)
Заголовок : DTS 5.1 @ 1536 Одноголосый закадровый - Ю.Живов
Язык : Russian
Default : Нет
Forced : Нет
Аудио #6
Идентификатор : 7
Формат : DTS
Формат/Информация : Digital Theater Systems
Режим : 16
Параметр Endianness формата : Big
Идентификатор кодека : A_DTS
Продолжительность : 2 ч. 4 м.
Вид битрейта : Постоянный
Битрейт : 1509 Кбит/сек
Каналы : 6 каналов
Расположение каналов : Front: L C R, Side: L R, LFE
Частота : 48,0 КГц
Битовая глубина : 24 бит
Метод сжатия : С потерями
Размер потока : 1,32 Гбайт (12%)
Заголовок : DTS 5.1 @ 1536
Язык : English
Default : Нет
Forced : Нет
Текст #1
Идентификатор : 8
Формат : UTF-8
Идентификатор кодека : S_TEXT/UTF8
Идентификатор кодека/Информация : UTF-8 Plain Text
Заголовок : П. Гланц
Язык : Russian
Default : Нет
Forced : Нет
Текст #2
Идентификатор : 9
Формат : UTF-8
Идентификатор кодека : S_TEXT/UTF8
Идентификатор кодека/Информация : UTF-8 Plain Text
Заголовок : Киномания
Язык : Russian
Default : Нет
Forced : Нет
Текст #3
Идентификатор : 10
Формат : UTF-8
Идентификатор кодека : S_TEXT/UTF8
Идентификатор кодека/Информация : UTF-8 Plain Text
Язык : English
Default : Да
Forced : Нет
Текст #4
Идентификатор : 11
Формат : UTF-8
Идентификатор кодека : S_TEXT/UTF8
Идентификатор кодека/Информация : UTF-8 Plain Text
Язык : Swedish
Default : Нет
Forced : Нет
Текст #5
Идентификатор : 12
Формат : UTF-8
Идентификатор кодека : S_TEXT/UTF8
Идентификатор кодека/Информация : UTF-8 Plain Text
Язык : Spanish
Default : Нет
Forced : Нет

_________________
[Торрент-статистика]
[Профиль]  [ЛС] 
Показать сообщения:    
Ответить на тему

Текущее время: Сегодня 07:45

Часовой пояс: GMT + 4



Вы не можете начинать темы
Вы не можете отвечать на сообщения
Вы не можете редактировать свои сообщения
Вы не можете удалять свои сообщения
Вы не можете голосовать в опросах
Вы не можете прикреплять файлы к сообщениям
Вы не можете скачивать файлы