И пробил час / Good Day for It ( Ник Стаглиано / Nick Stagliano) [2011 г., Триллер, криминал, BDRip 720p] MVO

Ответить на тему
 
Автор
Сообщение

awk05 ®

Пол:

Стаж: 4 года 5 месяцев

Сообщений: 1352

Репутация: 275 [+] [-]

Откуда: Западная Украина Ривне

Пост 27-Июл-2014 17:10

[Цитировать] 

--И пробил час / Good Day for It
«A man forced to abandon his wife and daughter years earlier
must risk his life to settle an old score and reunite his family»
-- Год выпуска: 2011
Жанр: Триллер, криминал
Выпущено: США, Expressway Productions
Продолжительность: 01:32:23
Перевод: Профессиональный многоголосый
Субтитры: отсутствуют--Режиссер: Ник Стаглиано / Nick Stagliano --
В ролях: Роберт Патрик (Luke Cain), Хэл Холбрук (Hec), Джаред Акоста (Bobby), Кэти Бейкер (Rose Carter), Крис Барнс (Paulie), Майкл Белведуто (Businessman), Мика Бурем (Emily), Ричард Брэйк (Norman Tyrus), Мэтт Даффин (Truck Driver), Роберт Инглунд (Wayne Jackson), Джо Флениган (Deputy Doug Brady), Лэнс Хенриксен (Lyle Tyrus), Кристиан Кэйн (Dale Acton), и др.--О фильме: После того как Люк Шейн выдает полиции лидера местной банды Тайруса, он вынужден оставить город и скитаться по штатам, чтобы его дочь Эмили избежала мести банды Тайруса. 15 лет спустя Эмили умоляет отца увидеться с ней. Люк соглашается на встречу в кафе на окраине города. Но отец и дочь оказываются в ловушке — судьба свела с братом Тайрусом Норлсоном и его командой убийц-головорезов. Напряженное противостояние достигло своего пика и для Люка пробил час принять решение — вновь оставить свою дочь или же храбро подняться навстречу кошмару, который войдет в двери кафе.--Качество видео: BDRip 720p
Формат видео: MKV
Видео кодек: AVC (High@L4.1)
Аудио кодек: AC-3
Видео: AVC, 1280x544 (2.35:1), 23.976 fps, 6 174 Kbps (0.370 bit/pixel)
Аудио 1: AC-3, 48.0 KHz, 6 ch, 448 Kbps, CBR, 16 бит [RUS]
Аудио 2: AC-3, 48.0 KHz, 2 ch, 192 Kbps, CBR, 16 бит [ENG] -- --

Кадры из фильма

Тех. данные (MI)

General
Good.Day.For.It.2011.BDRip.720p.CINEMANIA.mkv
Format : Matroska
Format version : Version 4 / Version 2
File size : 4.40 GiB
Duration : 1h 32mn
Overall bit rate : 6 811 Kbps
Movie name : CINEMANIA.CC
Encoded date : UTC 2013-11-13 21:38:24
Writing application : mkvmerge v6.5.0 ('Isn't she lovely') built on Oct 20 2013 12:50:05
Writing library : libebml v1.3.0 + libmatroska v1.4.1
Video
ID : 1
Format : AVC
Format/Info : Advanced Video Codec
Format profile : High@L4.1
Format settings, CABAC : Yes
Format settings, ReFrames : 5 frames
Codec ID : V_MPEG4/ISO/AVC
Duration : 1h 32mn
Bit rate : 6 174 Kbps
Width : 1 280 pixels
Height : 544 pixels
Display aspect ratio : 2.35:1
Frame rate mode : Constant
Frame rate : 23.976 fps
Color space : YUV
Chroma subsampling : 4:2:0
Bit depth : 8 bits
Scan type : Progressive
Bits/(Pixel*Frame) : 0.370
Stream size : 3.90 GiB (89%)
Title : CINEMANIA.CC
Writing library : x264 core 133 r2334 a3ac64b
Encoding settings : cabac=1 / ref=5 / deblock=1:0:0 / analyse=0x3:0x133 / me=umh / subme=10 / psy=1 / psy_rd=1.00:0.15 / mixed_ref=1 / me_range=32 / chroma_me=1 / trellis=2 / 8x8dct=1 / cqm=0 / deadzone=21,11 / fast_pskip=0 / chroma_qp_offset=-3 / threads=6 / lookahead_threads=1 / sliced_threads=0 / nr=0 / decimate=1 / interlaced=0 / bluray_compat=0 / constrained_intra=0 / bframes=3 / b_pyramid=2 / b_adapt=2 / b_bias=0 / direct=3 / weightb=1 / open_gop=0 / weightp=2 / keyint=240 / keyint_min=23 / scenecut=40 / intra_refresh=0 / rc=2pass / mbtree=0 / bitrate=6174 / ratetol=2.0 / qcomp=0.60 / qpmin=10 / qpmax=51 / qpstep=4 / cplxblur=20.0 / qblur=0.5 / ip_ratio=1.40 / pb_ratio=1.00 / aq=1:1.00
Language : English
Default : No
Forced : No
Audio #1
ID : 2
Format : AC-3
Format/Info : Audio Coding 3
Mode extension : CM (complete main)
Format settings, Endianness : Big
Codec ID : A_AC3
Duration : 1h 32mn
Bit rate mode : Constant
Bit rate : 448 Kbps
Channel(s) : 6 channels
Channel positions : Front: L C R, Side: L R, LFE
Sampling rate : 48.0 KHz
Bit depth : 16 bits
Compression mode : Lossy
Stream size : 296 MiB (7%)
Title : Лицензия
Language : Russian
Default : No
Forced : No
Audio #2
ID : 3
Format : AC-3
Format/Info : Audio Coding 3
Mode extension : CM (complete main)
Format settings, Endianness : Big
Codec ID : A_AC3
Duration : 1h 32mn
Bit rate mode : Constant
Bit rate : 192 Kbps
Channel(s) : 2 channels
Channel positions : Front: L R
Sampling rate : 48.0 KHz
Bit depth : 16 bits
Compression mode : Lossy
Stream size : 127 MiB (3%)
Language : English
Default : No
Forced : No

_________________
[Торрент-статистика]
[Профиль]  [ЛС] 
Показать сообщения:    
Ответить на тему

Текущее время: Сегодня 16:15

Часовой пояс: GMT + 4



Вы не можете начинать темы
Вы не можете отвечать на сообщения
Вы не можете редактировать свои сообщения
Вы не можете удалять свои сообщения
Вы не можете голосовать в опросах
Вы не можете прикреплять файлы к сообщениям
Вы не можете скачивать файлы