Игра на выживание / Gone (Эйтор Далия / Heitor Dhalia)[2012 г., триллер, драма, BDRip 720p] DUB + Original + Sub

Ответить на тему
 
Автор
Сообщение

awk05 ®

Пол:

Стаж: 8 лет 10 месяцев

Сообщений: 1334

Репутация: 278 [+] [-]

Откуда: Западная Украина Ривне

Пост 27-Июл-2014 16:16

[Цитировать] 

--Игра на выживание / Gone
«Никто ей не верит. Ничто её не остановит.»
-- Страна: США
Студия: Lakeshore Entertainment
Жанр: триллер, драма
Год выпуска: 2012
Продолжительность: 01:34:52
Перевод: Профессиональный (дублированный) + Original
Cубтитры: Русские, английские, болгарские, греческие, испанские--Режиссер: Эйтор Далия / Heitor Dhalia--В ролях: Аманда Сайфред (Jill), Дэниел Сунджата (Powers), Дженнифер Карпентер (Sharon Ames), Себастиан Стэн (Billy), Уэс Бентли (Peter Hood), Ник Сирси (Mr. Miller), Сократис Отто (Jim), Эмили Уикершем (Molly), Джоэль Мур (Nick Massey), Кэтрин Менниг (Erica Lonsdale), Майкл Паре (Lt. Ray Bozeman), Сэм Аптон (Officer McKay), и др.--Описание: Джилл Пэрриш однажды приходит домой и не находит сестру. Джилл уверена, что серийный убийца, который похищал ее пару лет назад, вернулся, чтобы довести начатое до логического завершения. А начнет он с ее сестры. Полиция не воспринимает ее всерьез, говоря, что девушка объявится, когда нагуляется. Единственный выход - вступить в схватку с маньяком и разобраться с этим раз и навсегда.--Качество видео: BDRip 720p
Формат видео: MKV
Видео кодек: AVC (High@L4.1)
Аудио кодек: DTS
Видео: AVC, 1280x534 (2.35:1), 23.976 fps, 5 078 Kbps (0.310 bit/pixel)
Аудио 1: DTS, 48.0 KHz, 6 ch, 1 510 Kbps, CBR, 24 бит [RUS]
Аудио 2: DTS, 48.0 KHz, 6 ch, 1 510 Kbps, CBR, 24 бит [ENG] -- --

Кадры из фильма

Тех. данные (MI)

Общее
Уникальный идентификатор : 173061421212831502554459084379926197572 (0x82326AD6593F7FFAB392FCD576967544)
Полное имя : E:\тест\Gone.2012.BluRay.720p.Rus.Eng.DTS.x264-CHD.mkv
Формат : Matroska
Версия формата : Version 2
Размер файла : 5,37 Гбайт
Продолжительность : 1 ч. 34 м.
Общий поток : 8097 Кбит/сек
Дата кодирования : UTC 2012-05-12 22:22:07
Программа кодирования : mkvmerge v5.0.1 ('Es ist Sommer') built on Oct 9 2011 11:55:43
Библиотека кодирования : libebml v1.2.2 + libmatroska v1.3.0
Видео
Идентификатор : 1
Формат : AVC
Формат/Информация : Advanced Video Codec
Профиль формата : High@L4.1
Параметр CABAC формата : Да
Параметр ReFrames формата : 12 кадров
Идентификатор кодека : V_MPEG4/ISO/AVC
Продолжительность : 1 ч. 34 м.
Битрейт : 5078 Кбит/сек
Ширина : 1280 пикселей
Высота : 534 пикселя
Соотношение сторон : 2,40:1
Режим частоты кадров : Постоянный
Частота кадров : 23,976 кадра/сек
Цветовое пространство : YUV
Субдискретизация насыщенности : 4:2:0
Битовая глубина : 8 бит
Тип развёртки : Прогрессивная
Бит/(Пиксели*Кадры) : 0.310
Размер потока : 3,26 Гбайт (61%)
Заголовок : Gone.2012.BluRay.720p.DTS.x264-CHD
Библиотека кодирования : x264 core 120 r2146 bcd41db
Настройки программы : cabac=1 / ref=12 / deblock=1:-3:-3 / analyse=0x3:0x113 / me=umh / subme=10 / psy=1 / psy_rd=1.10:0.15 / mixed_ref=1 / me_range=32 / chroma_me=1 / trellis=2 / 8x8dct=1 / cqm=0 / deadzone=21,11 / fast_pskip=0 / chroma_qp_offset=-2 / threads=12 / sliced_threads=0 / nr=0 / decimate=1 / interlaced=0 / bluray_compat=0 / constrained_intra=0 / bframes=6 / b_pyramid=2 / b_adapt=2 / b_bias=0 / direct=3 / weightb=1 / open_gop=0 / weightp=2 / keyint=250 / keyint_min=23 / scenecut=40 / intra_refresh=0 / rc_lookahead=60 / rc=2pass / mbtree=0 / bitrate=5078 / ratetol=1.0 / qcomp=0.60 / qpmin=0 / qpmax=69 / qpstep=4 / cplxblur=20.0 / qblur=0.5 / vbv_maxrate=40000 / vbv_bufsize=30000 / nal_hrd=none / ip_ratio=1.40 / pb_ratio=1.30 / aq=1:0.80
Язык : English
Default : Да
Forced : Да
Аудио #1
Идентификатор : 2
Формат : DTS
Формат/Информация : Digital Theater Systems
Режим : 16
Параметр Endianness формата : Big
Идентификатор кодека : A_DTS
Продолжительность : 1 ч. 34 м.
Вид битрейта : Постоянный
Битрейт : 1509 Кбит/сек
Каналы : 6 каналов
Расположение каналов : Front: L C R, Side: L R, LFE
Частота : 48,0 КГц
Битовая глубина : 16 бит
Метод сжатия : С потерями
Размер потока : 1,00 Гбайт (19%)
Заголовок : Дубляж, DTS 5.1
Язык : Russian
Default : Да
Forced : Да
Аудио #2
Идентификатор : 3
Формат : DTS
Формат/Информация : Digital Theater Systems
Режим : 16
Параметр Endianness формата : Big
Идентификатор кодека : A_DTS
Продолжительность : 1 ч. 34 м.
Вид битрейта : Постоянный
Битрейт : 1509 Кбит/сек
Каналы : 6 каналов
Расположение каналов : Front: L C R, Side: L R, LFE
Частота : 48,0 КГц
Битовая глубина : 24 бит
Метод сжатия : С потерями
Размер потока : 1,00 Гбайт (19%)
Язык : English
Default : Нет
Forced : Нет
Текст #1
Идентификатор : 4
Формат : UTF-8
Идентификатор кодека : S_TEXT/UTF8
Идентификатор кодека/Информация : UTF-8 Plain Text
Язык : Russian
Default : Да
Forced : Нет
Текст #2
Идентификатор : 5
Формат : UTF-8
Идентификатор кодека : S_TEXT/UTF8
Идентификатор кодека/Информация : UTF-8 Plain Text
Язык : English
Default : Нет
Forced : Нет
Текст #3
Идентификатор : 6
Формат : UTF-8
Идентификатор кодека : S_TEXT/UTF8
Идентификатор кодека/Информация : UTF-8 Plain Text
Язык : Bulgarian
Default : Нет
Forced : Нет
Текст #4
Идентификатор : 7
Формат : UTF-8
Идентификатор кодека : S_TEXT/UTF8
Идентификатор кодека/Информация : UTF-8 Plain Text
Язык : Greek
Default : Нет
Forced : Нет

_________________
[Торрент-статистика]
[Профиль]  [ЛС] 
Показать сообщения:    
Ответить на тему

Текущее время: Сегодня 07:09

Часовой пояс: GMT + 4



Вы не можете начинать темы
Вы не можете отвечать на сообщения
Вы не можете редактировать свои сообщения
Вы не можете удалять свои сообщения
Вы не можете голосовать в опросах
Вы не можете прикреплять файлы к сообщениям
Вы не можете скачивать файлы