Хлоя / Chloe (Атом Эгоян / Atom Egoyan) [2009 г., триллер, драма, детектив, BDRip 720p] DUB + Sub

Ответить на тему
 
Автор
Сообщение

awk05 ®

Пол:

Стаж: 8 лет 10 месяцев

Сообщений: 1334

Репутация: 278 [+] [-]

Откуда: Западная Украина Ривне

Пост 24-Июл-2014 20:32

[Цитировать] 

--Хлоя / Chloe
«Как далеко ты зайдешь, чтобы узнать правду?»
-- Год выпуска: 2009
Выпущено: США, Канада, Франция
Жанр: триллер, драма, детектив
Продолжительность: 01:36:10
Перевод: Дублированный
Субтитры: Русские, английские--Режиссер: Атом Эгоян / Atom Egoyan--
В ролях: Джулианна Мур (Catherine Stewart), Лиам Нисон (David Stewart), Аманда Сайфред (Chloe), Макс Тириот (Michael Stewart), Р.Х. Томсон (Frank), Нина Добрев (Anna), Мишу Веллани (Receptionist), Джули Ханер (Bimsy), Лаура ДеКартере (Alicia), Натали Лисинска (Eliza), Тиффани Линдолл-Найт (Trina), Меган Хефферн (Miranda), Тамсен МакДонаф (Waitress), и др.--О фильме: Кэтрин — врач, Дэвид — профессор, у них прекрасный сын. На первый взгляд, это идеальная семья. Но однажды Дэвид опаздывает на самолет и пропускает семейное торжество, посвященное его дню рождения. С этого момента Кэтрин начинает подозревать мужа в измене. Женщина заключает сделку с Хлоей, которая должна соблазнить Дэвида и предоставить подробный отчет. Но со временем отчеты становятся все более сухими, а встречи двух женщин — все более частыми…--Качество видео: BDRip 720p
Формат видео: MKV
Видео кодек: AVC (High@L4.1)
Аудио кодек: DTS
Видео: AVC, 1280x720 (16:9), 24.000 fps, 5 061 Kbps (0.229 bit/pixel)
Аудио 1: DTS, 48.0 KHz, 6 ch, 1 510 Kbps, CBR, 24 бит [RUS]
Аудио 2: DTS, 48.0 KHz, 6 ch, 1 510 Kbps, CBR, 24 бит [ENG] -- --

Знаете ли Вы, что...

* Финансирование проекта полностью взяла на себя французская студия «Studio Canal», а съёмки прошли в канадском Торонто.
* Ещё до первой кинопрокатной премьеры создатели фильма полностью окупили свои затраты путём продаж прав на него в отдельных странах.
* В середине марта 2009 года, когда съёмки шли полным ходом, Лиам Нисон вынужден был срочно уехать к своей жене Наташе Ричардсон, получившей оказавшуюся летальной травму во время катания на лыжах. Всего лишь через несколько дней после её смерти актёр по своей инициативе вернулся на съемочную площадку и продолжил работу. Продюсеры и режиссёр пошли ему навстречу, так изменив сценарий, чтобы все остающиеся сцены уложились в два дня съёмок.
* Обе актрисы, сыгравшие главные роли в картине, Джулианна Мур и Аманда Сэйфрид, родились в один и тот же день, 3 декабря, с разницей в 25 лет.
* Убедить Аманду Сэйфрид сыграть роль в картине помог исполнительный продюсер Джейсон Рейтман.
* На протяжении фильма героиня Джулианны Мур получает текстовые сообщения от Хлои. Даты, которые появляются на её мобильном телефоне показывают, что время движется в обратном направлении. В начале фильма, дата гласит: «27 марта», а в конце фильма гласит: «25 марта».

Скриншоты

Тех. данные (MI)

Общее
Уникальный идентификатор : 224409374058183095645608825874312660807 (0xA8D3AC5F5A99693889718BD8B3CD0747)
Полное имя : E:\тест\Hloja.2009.x264.BDRip(720p)-Kinozal.TV-HD.mkv
Формат : Matroska
Версия формата : Version 1
Размер файла : 5,38 Гбайт
Продолжительность : 1 ч. 36 м.
Общий поток : 8014 Кбит/сек
Название фильма : --SCHUMAHER--
Дата кодирования : UTC 2010-07-20 15:03:46
Программа кодирования : mkvmerge v2.1.0 ('Another Place To Fall') built on Aug 19 2007 13:40:07
Библиотека кодирования : libebml v0.7.7 + libmatroska v0.8.1
Видео
Идентификатор : 1
Формат : AVC
Формат/Информация : Advanced Video Codec
Профиль формата : High@L4.1
Параметр CABAC формата : Да
Параметр ReFrames формата : 8 кадров
Идентификатор кодека : V_MPEG4/ISO/AVC
Продолжительность : 1 ч. 36 м.
Битрейт : 5061 Кбит/сек
Ширина : 1280 пикселей
Высота : 720 пикселей
Соотношение сторон : 16:9
Режим частоты кадров : Постоянный
Частота кадров : 24,000 кадра/сек
Цветовое пространство : YUV
Субдискретизация насыщенности : 4:2:0
Битовая глубина : 8 бит
Тип развёртки : Прогрессивная
Бит/(Пиксели*Кадры) : 0.229
Размер потока : 3,25 Гбайт (60%)
Библиотека кодирования : x264 core 88 r1471 1144615
Настройки программы : cabac=1 / ref=8 / deblock=1:-3:-3 / analyse=0x3:0x113 / me=umh / subme=9 / psy=1 / psy_rd=1.05:0.10 / mixed_ref=1 / me_range=32 / chroma_me=1 / trellis=2 / 8x8dct=1 / cqm=2 / deadzone=21,11 / fast_pskip=0 / chroma_qp_offset=-2 / threads=6 / sliced_threads=0 / nr=0 / decimate=1 / mbaff=0 / constrained_intra=0 / bframes=3 / b_pyramid=2 / b_adapt=2 / b_bias=0 / direct=3 / wpredb=1 / wpredp=2 / keyint=250 / keyint_min=25 / scenecut=40 / intra_refresh=0 / rc_lookahead=60 / rc=2pass / mbtree=1 / bitrate=5061 / ratetol=1.0 / qcomp=0.60 / qpmin=10 / qpmax=51 / qpstep=4 / cplxblur=20.0 / qblur=0.5 / vbv_maxrate=50000 / vbv_bufsize=50000 / ip_ratio=1.40 / aq=1:0.60
Язык : English
Default : Да
Forced : Нет
Аудио #1
Идентификатор : 2
Формат : DTS
Формат/Информация : Digital Theater Systems
Режим : 16
Параметр Endianness формата : Big
Идентификатор кодека : A_DTS
Продолжительность : 1 ч. 36 м.
Вид битрейта : Постоянный
Битрейт : 1509 Кбит/сек
Каналы : 6 каналов
Расположение каналов : Front: L C R, Side: L R, LFE
Частота : 48,0 КГц
Битовая глубина : 24 бит
Метод сжатия : С потерями
Размер потока : 1,01 Гбайт (19%)
Язык : Russian
Default : Да
Forced : Нет
Аудио #2
Идентификатор : 3
Формат : DTS
Формат/Информация : Digital Theater Systems
Режим : 16
Параметр Endianness формата : Big
Идентификатор кодека : A_DTS
Продолжительность : 1 ч. 36 м.
Вид битрейта : Постоянный
Битрейт : 1510 Кбит/сек
Каналы : 6 каналов
Расположение каналов : Front: L C R, Side: L R, LFE
Частота : 48,0 КГц
Битовая глубина : 24 бит
Метод сжатия : С потерями
Размер потока : 1,01 Гбайт (19%)
Язык : English
Default : Нет
Forced : Нет
Текст #1
Идентификатор : 4
Формат : UTF-8
Идентификатор кодека : S_TEXT/UTF8
Идентификатор кодека/Информация : UTF-8 Plain Text
Язык : Russian
Default : Да
Forced : Нет
Текст #2
Идентификатор : 5
Формат : UTF-8
Идентификатор кодека : S_TEXT/UTF8
Идентификатор кодека/Информация : UTF-8 Plain Text
Язык : English
Default : Нет
Forced : Нет

_________________
[Торрент-статистика]
[Профиль]  [ЛС] 
Показать сообщения:    
Ответить на тему

Текущее время: Сегодня 23:57

Часовой пояс: GMT + 4



Вы не можете начинать темы
Вы не можете отвечать на сообщения
Вы не можете редактировать свои сообщения
Вы не можете удалять свои сообщения
Вы не можете голосовать в опросах
Вы не можете прикреплять файлы к сообщениям
Вы не можете скачивать файлы