Полтора рыцаря: В поисках похищенной принцессы Херцелинды / 1 1/2 Ritter - Auf der Suche nach der hinreißenden Herzelinde (Тиль Швайгер, Торстен Кюнстлер, Кристоф Валь) [2008, Германия, комедия, BDRip 720p] DUB original ger

Ответить на тему
 
Автор
Сообщение

awk05 ®

Пол:

Стаж: 8 лет 10 месяцев

Сообщений: 1334

Репутация: 278 [+] [-]

Откуда: Западная Украина Ривне

Пост 22-Июл-2014 16:28

[Цитировать] 

--Полтора рыцаря: В поисках похищенной принцессы Херцелинды /
1 1/2 Ritter - Auf der Suche nach der hinreißenden Herzelinde
-- Страна: Германия
Жанр: комедия
Год выпуска: 2008
Продолжительность: 01:55:13
Перевод: Профессиональный (дублированный)
Cубтитры: нет--Режиссер: Тиль Швайгер, Торстен Кюнстлер, Кристоф Валь--В ролях: Тиль Швайгер (Ritter Lanze), Рик Каваниан (Halb-Ritter Erdal), Юлия Дице (Prinzessin Herzelinde), Томас Готтшальк (König Gunther), Удо Кир (Luipold Trumpf), Тобиас Моретти (Schwarzer Ritter), Ральф Херфорт (Walter Sattler), Ханнелоре Эльснер (Hexe), Марк Келлер (Prinz Gustav), Аарон Келлер (Knappe Georg), Анна Мария Мюэ (Magd), Юстус фон Донаньи (Bernd), Грегор Блоеб (Kerkermeister), и др.--Описание: Жил-был король со своей дочерью Херцелиндой. При принцессе был рыцарь-телохранитель Ланце. Она его любила, и он ее тоже любил, но не мог ей в этом признаться. Но в один прекрасный день принцессу похищает Черный рыцарь, и храбрый Ланце отправляется на ее поиски, а в помощь ему подряжается псевдо-рыцарь — трусливый турок. С тех пор и начинаются злоключения Полтора рыцаря.--Качество видео: BDRip 720p
Формат видео: MKV
Видео кодек: AVC (High@L4.1)
Аудио кодек: AC-3
Видео: AVC, 1280x544 (2.35:1), 23.976 fps, 4 793 Kbps (0.281 bit/pixel)
Аудио 1: AC-3, 48.0 KHz, 6 ch, 384 Kbps, CBR, 16 бит [RUS]
Аудио 2: AC-3, 48.0 KHz, 6 ch, 640 Kbps, CBR, 16 бит [GER] -- --

Скриншоты

Тех. данные (MI)

Общее
Уникальный идентификатор : 229717529151985985230286924018354825288 (0xACD1FC9FDF1BC261A35C273B6A092848)
Полное имя : E:\тест\Ritter - Auf der Suche nach der hinreibenden Herzelinde 720p BDRip\Ritteraufdersuchenachderhinreibendenherzelinde720pBDRipRus.mkv
Формат : Matroska
Версия формата : Version 1
Размер файла : 4,17 Гбайт
Продолжительность : 1 ч. 55 м.
Общий поток : 5180 Кбит/сек
Название фильма : {Benjamin Collection} (с)
Дата кодирования : UTC 2011-03-23 05:08:13
Программа кодирования : mkvmerge v2.4.2 ('Oh My God') built on Jan 18 2009 17:30:28
Библиотека кодирования : libebml v0.7.7 + libmatroska v0.8.1
Видео
Идентификатор : 1
Формат : AVC
Формат/Информация : Advanced Video Codec
Профиль формата : High@L4.1
Параметр CABAC формата : Да
Параметр ReFrames формата : 5 кадров
Идентификатор кодека : V_MPEG4/ISO/AVC
Продолжительность : 1 ч. 55 м.
Битрейт : 4793 Кбит/сек
Ширина : 1280 пикселей
Высота : 544 пикселя
Соотношение сторон : 2,35:1
Режим частоты кадров : Постоянный
Частота кадров : 23,976 кадра/сек
Цветовое пространство : YUV
Субдискретизация насыщенности : 4:2:0
Битовая глубина : 8 бит
Тип развёртки : Прогрессивная
Бит/(Пиксели*Кадры) : 0.287
Размер потока : 3,78 Гбайт (91%)
Библиотека кодирования : x264 core 68 r1195 5d75a9b
Настройки программы : cabac=1 / ref=5 / deblock=1:0:0 / analyse=0x3:0x113 / me=umh / subme=7 / psy_rd=1.0:0.0 / mixed_ref=1 / me_range=16 / chroma_me=1 / trellis=1 / 8x8dct=1 / cqm=0 / deadzone=21,11 / chroma_qp_offset=-2 / threads=6 / nr=0 / decimate=1 / mbaff=0 / bframes=3 / b_pyramid=1 / b_adapt=1 / b_bias=0 / direct=3 / wpredb=1 / keyint=250 / keyint_min=25 / scenecut=40 / rc=2pass / bitrate=4793 / ratetol=1.0 / qcomp=0.60 / qpmin=10 / qpmax=51 / qpstep=4 / cplxblur=20.0 / qblur=0.5 / ip_ratio=1.40 / pb_ratio=1.30 / aq=1:1.00
Язык : German
Default : Да
Forced : Нет
Аудио
Идентификатор : 2
Формат : AC-3
Формат/Информация : Audio Coding 3
Расширение режима : CM (complete main)
Параметр Endianness формата : Big
Идентификатор кодека : A_AC3
Продолжительность : 1 ч. 55 м.
Вид битрейта : Постоянный
Битрейт : 384 Кбит/сек
Каналы : 6 каналов
Расположение каналов : Front: L C R, Side: L R, LFE
Частота : 48,0 КГц
Битовая глубина : 16 бит
Метод сжатия : С потерями
Размер потока : 316 Мбайт (7%)
Заголовок : Dubbing AC3 5.1 384 Кбит/сек
Язык : Russian
Default : Да
Forced : Нет
Общее
Уникальный идентификатор : 235593927714369035706373755657584215550 (0xB13DBD714D218090A5CDEBC745C185FE)
Полное имя : E:\тест\Ritter - Auf der Suche nach der hinreibenden Herzelinde 720p BDRip\Ritteraufdersuchenachderhinreibendenherzelinde720pBDRipRus.Ger.ac3
Формат : Matroska
Версия формата : Version 1
Размер файла : 528 Мбайт
Продолжительность : 1 ч. 55 м.
Режим общего битрейта : Постоянный
Общий поток : 641 Кбит/сек
Дата кодирования : UTC 2011-03-23 05:44:56
Программа кодирования : mkvmerge v2.4.2 ('Oh My God') built on Jan 18 2009 17:30:28
Библиотека кодирования : libebml v0.7.7 + libmatroska v0.8.1
Аудио
Идентификатор : 1
Формат : AC-3
Формат/Информация : Audio Coding 3
Расширение режима : CM (complete main)
Параметр Endianness формата : Big
Идентификатор кодека : A_AC3
Продолжительность : 1 ч. 55 м.
Вид битрейта : Постоянный
Битрейт : 640 Кбит/сек
Каналы : 6 каналов
Расположение каналов : Front: L C R, Side: L R, LFE
Частота : 48,0 КГц
Битовая глубина : 16 бит
Метод сжатия : С потерями
Размер потока : 527 Мбайт (100%)
Язык : German
Default : Да
Forced : Нет
Меню
00:00:00.000 : en:00:00:00.000
00:06:41.151 : en:00:06:41.151
00:16:08.551 : en:00:16:08.551
00:26:23.582 : en:00:26:23.582
00:37:42.260 : en:00:37:42.260
00:45:25.056 : en:00:45:25.056
00:56:50.616 : en:00:56:50.616
01:05:33.096 : en:01:05:33.096
01:13:56.849 : en:01:13:56.849
01:19:44.780 : en:01:19:44.780
01:31:20.350 : en:01:31:20.350
01:43:04.595 : en:01:43:04.595

_________________
[Торрент-статистика]
[Профиль]  [ЛС] 
Показать сообщения:    
Ответить на тему

Текущее время: Сегодня 03:32

Часовой пояс: GMT + 4



Вы не можете начинать темы
Вы не можете отвечать на сообщения
Вы не можете редактировать свои сообщения
Вы не можете удалять свои сообщения
Вы не можете голосовать в опросах
Вы не можете прикреплять файлы к сообщениям
Вы не можете скачивать файлы