Последний рубеж / Homefront (Гэри Фледер / Gary Fleder) [2013 г., США, боевик, криминал, BDRip 720p] Dub + AVO (Гаврилов) + VO (Есарев) + Original Eng + Sub Rus, Eng

Ответить на тему
 
Автор
Сообщение

awk05 ®

Пол:

Стаж: 8 лет 10 месяцев

Сообщений: 1334

Репутация: 278 [+] [-]

Откуда: Западная Украина Ривне

Пост 21-Июл-2014 23:25

[Цитировать] 

--Последний рубеж / Homefront«На что ты готов ради защиты своей семьи?»-- Страна: США
Студия: Homefront Productions, Millennium Films, Mojo Films
Жанр: Боевик, криминал
Год выпуска: 2013
Продолжительность: 01:40:34
Перевод 1: Профессиональный (полное дублирование)
Перевод 2: Авторский (одноголосый, закадровый) А. Гаврилов
Перевод 3: Одноголосый (закадровый) Д. Есарев
Субтитры: Русские (полные, ненормативная лексика), Английские (полные), Английские (полные SDH), Английские (полные SDH-Colored)--Режиссер: Гэри Фледер / Gary Fleder--В ролях: Джейсон Стэйтем (Phil Broker), Джеймс Франко (Morgan «Gator» Bodine), Изабела Видович (Maddy Broker), Вайнона Райдер (Sheryl Marie Mott), Кейт Босворт (Cassie Bodine Klum), Клэнси Браун (Sheriff Keith Rodrigue), Рашель Лефевр (Susan Hetch), Омар Бенсон Миллер (Teedo), Маркус Хестер (Jimmy Klum), Фрэнк Грилло (Cyrus Hanks), Чак Цито («Danny T» Turrie), Прюитт Тэйлор Винс (Werks), Линдс Эдвардс (Jojo Turrie), и др.--Описание: Фил Брокер — бывший агент из отдела борьбы с наркотиками. Фил переезжает в небольшой город вместе с семьей в надежде забыть прошлое. Но он узнает, что город только со стороны кажется тихим и спокойным местом, на самом деле он кишит насилием, наркотиками, а всем этим заправляет злодей по кличке Аллигатор…--Качество видео: BDRip 720p
Формат видео: MKV
Видео кодек: AVC (High@L4.1)
Аудио кодек: DTS,
Видео: AVC, 1280x534 (2.40:1), 23.976 fps, ~6830 kbps avg, 0.417 bit/pixel
Аудио 1: DTS, 48.0 KHz, 6 ch, ~1510 Kbps, CBR, 24 бит [RUS] Профессиональный (полное дублирование)
Аудио 1: DTS, 48.0 KHz, 6 ch, ~1510 Kbps, CBR, 24 бит [RUS] Авторский (одноголосый, закадровый) Гаврилов
Аудио 1: DTS, 48.0 KHz, 6 ch, ~1510 Kbps, CBR, 24 бит [RUS] Одноголосый (закадровый) Есарев
Аудио 2: DTS, 48.0 KHz, 6 ch, ~1510 Kbps, CBR, 24 бит [ENG] -- --

Знаете ли Вы, что...

Сценарий был написан много лет назад Сильвестром Сталлоне, для него же самого, но так и не был реализован.

Тех. данные (MI)

Уникальный идентификатор : 201366799519056363007960279432495304599 (0x977DD5BC003FC2CD9A2568F9EB9B0F97)
Полное имя : Homefront.2013.720p.BluRay.3xRus.Eng.-HQCLUB.mkv
Формат : Matroska
Версия формата : Version 2
Размер файла : 9,04 Гбайт
Продолжительность : 1 ч. 40 м.
Общий поток : 12,9 Мбит/сек
Дата кодирования : UTC 2014-07-01 21:31:58
Программа кодирования : mkvmerge v5.2.0 ('I can't explain') built on Dec 18 2011 18:12:03
Библиотека кодирования : libebml v1.2.3 + libmatroska v1.3.0
Видео
Идентификатор : 1
Формат : AVC
Формат/Информация : Advanced Video Codec
Профиль формата : High@L4.1
Параметр CABAC формата : Да
Параметр ReFrames формата : 12 кадров
Идентификатор кодека : V_MPEG4/ISO/AVC
Продолжительность : 1 ч. 40 м.
Битрейт : 6830 Кбит/сек
Ширина : 1280 пикселей
Высота : 534 пикселя
Соотношение сторон : 2,40:1
Режим частоты кадров : Постоянный
Частота кадров : 23,976 кадра/сек
Цветовое пространство : YUV
Субдискретизация насыщенности : 4:2:0
Битовая глубина : 8 бит
Тип развёртки : Прогрессивная
Бит/(Пиксели*Кадры) : 0.417
Размер потока : 4,61 Гбайт (51%)
Заголовок : Последний рубеж / Homefront (2013) BDRip 720p by HQCLUB [Elheym]
Библиотека кодирования : x264 core 142 r2431 ac76440
Настройки программы : cabac=1 / ref=12 / deblock=1:-3:-2 / analyse=0x3:0x113 / me=umh / subme=11 / psy=1 / psy_rd=1.16:0.00 / mixed_ref=1 / me_range=32 / chroma_me=1 / trellis=2 / 8x8dct=1 / cqm=0 / deadzone=21,11 / fast_pskip=1 / chroma_qp_offset=-4 / threads=6 / lookahead_threads=1 / sliced_threads=0 / nr=0 / decimate=1 / interlaced=0 / bluray_compat=0 / constrained_intra=0 / bframes=9 / b_pyramid=2 / b_adapt=2 / b_bias=0 / direct=3 / weightb=1 / open_gop=0 / weightp=2 / keyint=240 / keyint_min=23 / scenecut=40 / intra_refresh=0 / rc_lookahead=40 / rc=2pass / mbtree=0 / bitrate=6830 / ratetol=1.0 / qcomp=0.60 / qpmin=10 / qpmax=69 / qpstep=4 / cplxblur=20.0 / qblur=0.5 / vbv_maxrate=50000 / vbv_bufsize=62500 / nal_hrd=none / filler=0 / ip_ratio=1.40 / pb_ratio=1.30 / aq=1:0.90
Язык : English
Default : Да
Forced : Нет
Аудио #1
Идентификатор : 2
Формат : DTS
Формат/Информация : Digital Theater Systems
Режим : 16
Параметр Endianness формата : Big
Идентификатор кодека : A_DTS
Продолжительность : 1 ч. 40 м.
Вид битрейта : Постоянный
Битрейт : 1509 Кбит/сек
Каналы : 6 каналов
Расположение каналов : Front: L C R, Side: L R, LFE
Частота : 48,0 КГц
Битовая глубина : 24 бит
Метод сжатия : С потерями
Размер потока : 1,06 Гбайт (12%)
Заголовок : DTS 5.1 @ 1509 kbps - Dub
Язык : Russian
Default : Нет
Forced : Нет
Аудио #2
Идентификатор : 3
Формат : DTS
Формат/Информация : Digital Theater Systems
Режим : 16
Параметр Endianness формата : Big
Идентификатор кодека : A_DTS
Продолжительность : 1 ч. 40 м.
Вид битрейта : Постоянный
Битрейт : 1509 Кбит/сек
Каналы : 6 каналов
Расположение каналов : Front: L C R, Side: L R, LFE
Частота : 48,0 КГц
Битовая глубина : 24 бит
Метод сжатия : С потерями
Размер потока : 1,06 Гбайт (12%)
Заголовок : DTS 5.1 @ 1509 kbps - AVO, Gavrilov
Язык : Russian
Default : Нет
Forced : Нет
Аудио #3
Идентификатор : 4
Формат : DTS
Формат/Информация : Digital Theater Systems
Режим : 16
Параметр Endianness формата : Big
Идентификатор кодека : A_DTS
Продолжительность : 1 ч. 40 м.
Вид битрейта : Постоянный
Битрейт : 1510 Кбит/сек
Каналы : 6 каналов
Расположение каналов : Front: L C R, Side: L R, LFE
Частота : 48,0 КГц
Битовая глубина : 24 бит
Метод сжатия : С потерями
Размер потока : 1,06 Гбайт (12%)
Заголовок : DTS 5.1 @ 1510 kbps - AVO, Esarev
Язык : Russian
Default : Нет
Forced : Нет
Аудио #4
Идентификатор : 5
Формат : DTS
Формат/Информация : Digital Theater Systems
Режим : 16
Параметр Endianness формата : Big
Идентификатор кодека : A_DTS
Продолжительность : 1 ч. 40 м.
Вид битрейта : Постоянный
Битрейт : 1509 Кбит/сек
Каналы : 6 каналов
Расположение каналов : Front: L C R, Side: L R, LFE
Частота : 48,0 КГц
Битовая глубина : 24 бит
Метод сжатия : С потерями
Размер потока : 1,06 Гбайт (12%)
Заголовок : DTS 5.1 @ 1509 kbps - Original
Язык : English
Default : Нет
Forced : Нет
Текст #1
Идентификатор : 6
Формат : UTF-8
Идентификатор кодека : S_TEXT/UTF8
Идентификатор кодека/Информация : UTF-8 Plain Text
Заголовок : Full
Язык : Russian
Default : Нет
Forced : Нет
Текст #2
Идентификатор : 7
Формат : UTF-8
Идентификатор кодека : S_TEXT/UTF8
Идентификатор кодека/Информация : UTF-8 Plain Text
Заголовок : Full
Язык : English
Default : Нет
Forced : Нет
Текст #3
Идентификатор : 8
Формат : UTF-8
Идентификатор кодека : S_TEXT/UTF8
Идентификатор кодека/Информация : UTF-8 Plain Text
Заголовок : Full SDH
Язык : English
Default : Нет
Forced : Нет
Текст #4
Идентификатор : 9
Формат : UTF-8
Идентификатор кодека : S_TEXT/UTF8
Идентификатор кодека/Информация : UTF-8 Plain Text
Заголовок : Full SDH Colored
Язык : English
Default : Нет
Forced : Нет
Меню
00:00:00.000 : :Chapter 01
00:04:55.461 : :Chapter 02
00:09:14.095 : :Chapter 03
00:14:55.853 : :Chapter 04
00:21:42.426 : :Chapter 05
00:25:03.001 : :Chapter 06
00:31:23.214 : :Chapter 07
00:34:04.000 : :Chapter 08
00:39:01.088 : :Chapter 09
00:45:47.995 : :Chapter 10
00:49:29.257 : :Chapter 11
00:55:16.479 : :Chapter 12
01:01:55.420 : :Chapter 13
01:08:56.173 : :Chapter 14
01:12:27.634 : :Chapter 15
01:16:00.973 : :Chapter 16
01:19:15.250 : :Chapter 17
01:24:02.620 : :Chapter 18
01:29:39.122 : :Chapter 19
01:35:16.961 : :Chapter 20
01:40:34.611 : :Chapter 21

Скриншоты


_________________
[Торрент-статистика]
[Профиль]  [ЛС] 
Показать сообщения:    
Ответить на тему

Текущее время: Сегодня 02:23

Часовой пояс: GMT + 4



Вы не можете начинать темы
Вы не можете отвечать на сообщения
Вы не можете редактировать свои сообщения
Вы не можете удалять свои сообщения
Вы не можете голосовать в опросах
Вы не можете прикреплять файлы к сообщениям
Вы не можете скачивать файлы