Под маской жиголо / Fading Gigolo (Джон Туртурро / John Turturro) [2013 г., комедия, WEB-DL 720p] DUB iTunes

Ответить на тему
 
Автор
Сообщение

awk05 ®

Пол:

Стаж: 8 лет 9 месяцев

Сообщений: 1334

Репутация: 278 [+] [-]

Откуда: Западная Украина Ривне

Пост 21-Июл-2014 18:33

[Цитировать] 

--Под маской жиголо / Fading Gigolo-- Год выпуска2013
Страна: США / Antidote Films (I)
Жанр: комедия
Продолжительность: 01:21:47
Перевод: Дублированное [iTunes]
Субтитры: отсутствуют--Режиссёр: Джон Туртурро / John Turturro--В ролях: Джон Туртурро (Fioravante), Вуди Аллен (Murray), Шэрон Стоун (Dr. Parker), София Вергара (Selima), Ванесса Паради (Avigal), Лив Шрайбер (Dovi), Тоня Пинкинс (Othella), Джейд Диксон (Cee Cee), Обри Джозеф (Cefus), Данте Хоагленд (Coco), и др.--Описание: Герой Вуди предлагает своему небогатому другу услуги сутенера в оригинальном бизнесе - любовных играх с состоятельными женщинами. И, казалось бы, все пошло как по маслу, но после череды комичных ляпов и позорных провалов, становится очевидно, что парни плывут против течения денег и любви...--Качество видео: WEB-DL 720p
Формат видео: MKV
Видео кодек: AVC (Main@L3.1)
Аудио кодек: AC-3
Видео: AVC, AVC, 1280@960x720 (16:9), 25.000 fps, 3 832 Kbps (0.222 bit/pixel)
Аудио: AC-3, 48.0 KHz, 6 ch, 384 Kbps, CBR, 16 бит [RUS]
-- --

Знаете ли Вы, что...

* Работая над ролью вдовы раввина, Ванесса Паради несколько недель общалась с девушкой из закрытой еврейской общины, женщиной со схожей с ее героиней жизненной ситуацией. «Это была очень сильная, молодая, красивая женщина, – говорит Ванесса Паради, — ей было всего 25, но казалось, что она прожила уже больше ста лет».
* Первый, с кем Джон Туртурро поделился новой историей, был, как ни странно, его парикмахер. А парикмахер, привыкший беседовать во время стрижки с клиентами, разболтал все Вуди Аллену. Мэтру настолько понравилась идея Туртурро, что он сам скоро разыскал его и включился в работу.
* Одно из немногих появлений Вуди Аллена в фильме, который он снимает не сам.
* Для создания аутентичной атмосферы в определенных эпизодах фильма, Джон Туртурро несколько лет изучал жизнь общины ортодоксальных евреев, читал книги по истории хасидов и встречался с многими людьми из этого круга.

Скриншоты

[URL=http://radikal.ru/f/s020.radikal.ru/i720/1407/55/96197571e0c2.jpg.html] /URL]

Тех. данные (MI)

Общее
Уникальный идентификатор : 194354554293838411103017949596187238087 (0x9237535A251FEE96B4C22679DAB61EC7)
Полное имя : E:\тест\P0d.Maskoy.J1gal0.2013.D.WEB-DL.720p.mkv
Формат : Matroska
Версия формата : Version 4 / Version 2
Размер файла : 2,59 Гбайт
Продолжительность : 1 ч. 26 м.
Общий поток : 4301 Кбит/сек
Дата кодирования : UTC 2014-07-20 20:42:17
Программа кодирования : mkvmerge v7.0.0 ('Where We Going') 64bit built on Jun 9 2014 15:16:27
Библиотека кодирования : libebml v1.3.0 + libmatroska v1.4.1
Видео
Идентификатор : 1
Формат : AVC
Формат/Информация : Advanced Video Codec
Профиль формата : Main@L3.1
Параметр CABAC формата : Нет
Параметр ReFrames формата : 2 кадра
Идентификатор кодека : V_MPEG4/ISO/AVC
Продолжительность : 1 ч. 26 м.
Битрейт : 3832 Кбит/сек
Ширина : 960 пикселей
Высота : 720 пикселей
Соотношение сторон : 16:9
Режим частоты кадров : Постоянный
Частота кадров : 25,000 кадров/сек
Цветовое пространство : YUV
Субдискретизация насыщенности : 4:2:0
Битовая глубина : 8 бит
Тип развёртки : Прогрессивная
Бит/(Пиксели*Кадры) : 0.222
Размер потока : 2,31 Гбайт (89%)
Язык : English
Default : Да
Forced : Нет
Основные цвета : BT.709
Характеристики трансфера : BT.709
Коэффициенты матрицы : BT.709
Аудио
Идентификатор : 2
Формат : AC-3
Формат/Информация : Audio Coding 3
Расширение режима : CM (complete main)
Параметр Endianness формата : Big
Идентификатор кодека : A_AC3
Продолжительность : 1 ч. 26 м.
Вид битрейта : Постоянный
Битрейт : 384 Кбит/сек
Каналы : 6 каналов
Расположение каналов : Front: L C R, Side: L R, LFE
Частота : 48,0 КГц
Битовая глубина : 16 бит
Метод сжатия : С потерями
Размер потока : 237 Мбайт (9%)
Язык : Russian
Default : Да
Forced : Нет
Меню
00:00:00.000 : en:Глава 1
00:05:23.000 : en:Глава 2
00:10:42.000 : en:Глава 3
00:16:00.000 : en:Глава 4
00:21:29.000 : en:Глава 5
00:26:35.000 : en:Глава 6
00:32:18.000 : en:Глава 7
00:37:35.000 : en:Глава 8
00:43:07.000 : en:Глава 9
00:49:14.000 : en:Глава 10
00:54:45.000 : en:Глава 11
01:01:02.000 : en:Глава 12
01:07:23.000 : en:Глава 13
01:13:18.000 : en:Глава 14
01:17:37.000 : en:Глава 15

_________________
[Торрент-статистика]
[Профиль]  [ЛС] 
Показать сообщения:    
Ответить на тему

Текущее время: Сегодня 11:34

Часовой пояс: GMT + 4



Вы не можете начинать темы
Вы не можете отвечать на сообщения
Вы не можете редактировать свои сообщения
Вы не можете удалять свои сообщения
Вы не можете голосовать в опросах
Вы не можете прикреплять файлы к сообщениям
Вы не можете скачивать файлы