Сквозь горизонт / Event Horizon [1997 г., Ужасы, фантастика, триллер, BDRip-AVC] MVO, DVO, AVO

Ответить на тему
 
Автор
Сообщение

Я Бот ®

Стаж: 7 лет 5 месяцев

Сообщений: 20

Репутация: 23 [+] [-]

Пост 20-Июл-2014 19:16

[Цитировать] 

Сквозь горизонт / Event Horizon«Бескрайний космос. Беспредельный террор» Год выпуска: 1997
Страна: США, Golar Productions, Impact Pictures, Paramount Pictures
Жанр: Ужасы, фантастика, триллер
Продолжительность: 01:35:57
Перевод #1: Профессиональный (многоголосый закадровый) Superbit
Перевод #2: Профессиональный (двухголосый закадровый) Tycoon
Перевод #3: Профессиональный (двухголосый закадровый) П.Гланц и И.Королёва
Перевод #4: Авторский (одноголосый закадровый) Ю.Живов
Перевод #5: Авторский (одноголосый закадровый) С.Визгунов
Перевод #6: Оригинал
Cубтитры:Rus,Eng
Режиссер: Пол У.С. Андерсон
В ролях: Лоуренс Фишборн, Сэм Нилл, Кэтлин Куинлен, Джоэли Ричардсон, Ричард Т. Джонс, Джек Ноузворфи, Джейсон Айзекс, Шон Пертуи, Питер Маринкер, Холли Чэнт, Барклай Райт, Ной Хантли, Роберт Йезек, Эмили Бут, Тереза Мэй
Описание: 2047 год. Спасательный космический корабль послан к границе Солнечной системы с целью выяснить, что произошло с экипажем первого звездолета "Ивент Хорайзон", созданного для путешествий со сверхсветовой скоростью и бесследно исчезнувшего при первом же полете. Внезапно появившийся из ниоткуда, он был обнаружен возле далекой планеты Нептун. Шаг за шагом находя ответы на свои вопросы, команда начинает поддаваться чувству жуткого страха и ужаса, глубина которых соизмерима только с бескрайними просторами космоса...

Качество: BDRip-AVC
Формат: MKV
Видео кодек: H.264
Аудио кодек: AC3
Видео: AVC, 1024x438 (2.35:1), 23.976 fps, 3 500 Kbps (0.325 bit/pixel)
Аудио #1: AC3, 48.0 KHz, 6 ch, 448 Kbps, CBR Superbit
Аудио #2: AC3, 48.0 KHz, 6 ch, 448 Kbps, CBR Tycoon
Аудио #3: AC3, 48.0 KHz, 6 ch, 448 Kbps, CBR П.Гланц и И.Королёва
Аудио #4: AC3, 48.0 KHz, 6 ch, 448 Kbps, CBR Ю.Живов
Аудио #5: AC3, 48.0 KHz, 6 ch, 448 Kbps, CBR С.Визгунов
Аудио #6: AC3, 48.0 KHz, 6 ch, 448 Kbps, CBR Eng

MediaInfo

Общее
Уникальный идентификатор : 251075527075425741486825710630500886555 (0xBCE3633914BCF33087BC886EC03CE81B)
Полное имя : E:5Skvoz.gorizont.1997.x264.BDRip.(AVC).ExKinoRay.mkv
Формат : Matroska
Размер файла : 4,15 Гбайт
Продолжительность : 1 ч. 35 м.
Общий поток : 6187 Кбит/сек
Название фильма : Skvoz.gorizont.1997.x264.BDRip.(AVC).ExKinoRay
Дата кодирования : UTC 2013-11-12 11:35:53
Программа кодирования : mkvmerge v4.0.0 ('The Stars were mine') сборка от Jun 6 2010 16:18:42
Библиотека кодирования : libebml v1.0.0 + libmatroska v1.0.0
Видео
Идентификатор : 1
Формат : AVC
Формат/Информация : Advanced Video Codec
Профиль формата : High@L4.1
Параметр CABAC формата : Да
Параметр ReFrames формата : 8 кадров
Параметры GOP формата : M=9, N=48
Идентификатор кодека : V_MPEG4/ISO/AVC
Продолжительность : 1 ч. 35 м.
Битрейт : 3500 Кбит/сек
Ширина : 1024 пикс.
Высота : 438 пикс.
Соотношение сторон : 2,35:1
Частота кадров : 23,976 кадр/сек
Цветовое пространство : YUV
Подвыборка цветности : 4:2:0
Битовая глубина : 8 бит
Тип развёртки : Прогрессивная
Бит/(Пиксели*Кадры) : 0.325
Размер потока : 2,26 Гбайт (55%)
Заголовок : Rip by Enigma-Vladislav71
Библиотека кодирования : x264 core 129 r2245 bc13772
Настройки программы : cabac=1 / ref=8 / deblock=1:-2:-2 / analyse=0x3:0x133 / me=umh / subme=11 / psy=1 / psy_rd=1.00:0.00 / mixed_ref=1 / me_range=48 / chroma_me=1 / trellis=2 / 8x8dct=1 / cqm=0 / deadzone=21,11 / fast_pskip=0 / chroma_qp_offset=-2 / threads=3 / lookahead_threads=1 / sliced_threads=0 / nr=0 / decimate=0 / interlaced=0 / bluray_compat=0 / constrained_intra=0 / bframes=8 / b_pyramid=2 / b_adapt=2 / b_bias=0 / direct=3 / weightb=1 / open_gop=0 / weightp=2 / keyint=240 / keyint_min=23 / scenecut=40 / intra_refresh=0 / rc=2pass / mbtree=0 / bitrate=3500 / ratetol=1.0 / qcomp=0.60 / qpmin=10 / qpmax=51 / qpstep=4 / cplxblur=20.0 / qblur=0.5 / ip_ratio=1.40 / pb_ratio=1.30 / aq=2:1.00
Язык : English
Аудио #1
Идентификатор : 2
Формат : AC-3
Формат/Информация : Audio Coding 3
Расширение режима : CM (complete main)
Идентификатор кодека : A_AC3
Продолжительность : 1 ч. 35 м.
Вид битрейта : Постоянный
Битрейт : 448 Кбит/сек
Каналы : 6 каналов
Расположение каналов : Front: L C R, Side: L R, LFE
Частота : 48,0 КГц
Битовая глубина : 16 бит
Метод сжатия : С потерями
Размер потока : 307 Мбайт (7%)
Заголовок : Многоголосый (Superbit)
Язык : Russian
Аудио #2
Идентификатор : 3
Формат : AC-3
Формат/Информация : Audio Coding 3
Расширение режима : CM (complete main)
Идентификатор кодека : A_AC3
Продолжительность : 1 ч. 35 м.
Вид битрейта : Постоянный
Битрейт : 448 Кбит/сек
Каналы : 6 каналов
Расположение каналов : Front: L C R, Side: L R, LFE
Частота : 48,0 КГц
Битовая глубина : 16 бит
Метод сжатия : С потерями
Размер потока : 307 Мбайт (7%)
Заголовок : Двухголосый (Tycoon)
Язык : Russian
Аудио #3
Идентификатор : 4
Формат : AC-3
Формат/Информация : Audio Coding 3
Расширение режима : CM (complete main)
Идентификатор кодека : A_AC3
Продолжительность : 1 ч. 35 м.
Вид битрейта : Постоянный
Битрейт : 448 Кбит/сек
Каналы : 6 каналов
Расположение каналов : Front: L C R, Side: L R, LFE
Частота : 48,0 КГц
Битовая глубина : 16 бит
Метод сжатия : С потерями
Размер потока : 307 Мбайт (7%)
Заголовок : Двухголосый (П.Гланц и И.Королева)
Язык : Russian
Аудио #4
Идентификатор : 5
Формат : AC-3
Формат/Информация : Audio Coding 3
Расширение режима : CM (complete main)
Идентификатор кодека : A_AC3
Продолжительность : 1 ч. 35 м.
Вид битрейта : Постоянный
Битрейт : 448 Кбит/сек
Каналы : 6 каналов
Расположение каналов : Front: L C R, Side: L R, LFE
Частота : 48,0 КГц
Битовая глубина : 16 бит
Метод сжатия : С потерями
Размер потока : 307 Мбайт (7%)
Заголовок : Авторский одноголосый (Ю.Живов)
Язык : Russian
Аудио #5
Идентификатор : 6
Формат : AC-3
Формат/Информация : Audio Coding 3
Расширение режима : CM (complete main)
Идентификатор кодека : A_AC3
Продолжительность : 1 ч. 35 м.
Вид битрейта : Постоянный
Битрейт : 448 Кбит/сек
Каналы : 6 каналов
Расположение каналов : Front: L C R, Side: L R, LFE
Частота : 48,0 КГц
Битовая глубина : 16 бит
Метод сжатия : С потерями
Размер потока : 307 Мбайт (7%)
Заголовок : Авторский одноголосый (С.Визгунов)
Язык : Russian
Аудио #6
Идентификатор : 7
Формат : AC-3
Формат/Информация : Audio Coding 3
Расширение режима : CM (complete main)
Идентификатор кодека : A_AC3
Продолжительность : 1 ч. 35 м.
Вид битрейта : Постоянный
Битрейт : 448 Кбит/сек
Каналы : 6 каналов
Расположение каналов : Front: L C R, Side: L R, LFE
Частота : 48,0 КГц
Битовая глубина : 16 бит
Метод сжатия : С потерями
Размер потока : 307 Мбайт (7%)
Заголовок : английский
Язык : English
Текст #1
Идентификатор : 8
Формат : UTF-8
Идентификатор кодека : S_TEXT/UTF8
Идентификатор кодека/Информация : UTF-8 Plain Text
Заголовок : 1
Язык : Russian
Текст #2
Идентификатор : 9
Формат : UTF-8
Идентификатор кодека : S_TEXT/UTF8
Идентификатор кодека/Информация : UTF-8 Plain Text
Заголовок : 2
Язык : Russian
Текст #3
Идентификатор : 10
Формат : UTF-8
Идентификатор кодека : S_TEXT/UTF8
Идентификатор кодека/Информация : UTF-8 Plain Text
Язык : English
Меню
00:00:00.000 : en:Chapter 01
00:05:41.007 : en:Chapter 02
00:08:26.964 : en:Chapter 03
00:12:11.981 : en:Chapter 04
00:18:38.951 : en:Chapter 05
00:23:19.731 : en:Chapter 06
00:29:05.785 : en:Chapter 07
00:34:01.080 : en:Chapter 08
00:39:23.319 : en:Chapter 09
00:45:08.622 : en:Chapter 10
00:51:09.608 : en:Chapter 11
00:58:17.702 : en:Chapter 12
01:04:37.957 : en:Chapter 13
01:09:29.957 : en:Chapter 14
01:15:05.167 : en:Chapter 15
01:22:20.560 : en:Chapter 16
01:29:34.952 : en:Chapter 17

Скриншоты

[Торрент-статистика]
[Профиль]  [ЛС] 
Показать сообщения:    
Ответить на тему

Текущее время: Сегодня 10:49

Часовой пояс: GMT + 4



Вы не можете начинать темы
Вы не можете отвечать на сообщения
Вы не можете редактировать свои сообщения
Вы не можете удалять свои сообщения
Вы не можете голосовать в опросах
Вы не можете прикреплять файлы к сообщениям
Вы не можете скачивать файлы