Напролом / Lockout (Джеймс Мэтер / James Mather, Стивен Ст. Леджер / Stephen St. Leger) [2012 г., Фантастика, боевик, триллер, BDRip 720p] [Расширенная версия / Unrated Edition] Dub

Ответить на тему
 
Автор
Сообщение

awk05 ®

Пол:

Стаж: 8 лет 10 месяцев

Сообщений: 1334

Репутация: 278 [+] [-]

Откуда: Западная Украина Ривне

Пост 19-Июл-2014 18:53

[Цитировать] 

--Напролом / Lockout / Расширенная версия / Unrated Edition
«В одиночку против 500. В чем проблема?»
-- Страна: Франция
Жанр: Фантастика, боевик, триллер
Год выпуска: 2012
Продолжительность: 1:35:19
Перевод: Профессиональный (дублированный)
Cубтитры: Русские, английские--Режиссер: Джеймс Мэтер / James Mather, Стивен Ст. Леджер / Stephen St. Leger--В ролях: Гай Пирс (Snow), Мэгги Грэйс (Emilie Warnock), Винсент Риган (Alex), Джозеф Гилган (Hydell), Ленни Джеймс (Harry Shaw), Петер Стормаре (Scott Langral), Джеки Идо (Hock), Тим Плестер (John James Mace), Марк Танкерсли (Barnes), Энн-Соленн Хатте (Kathryn), и др.--Описание: Орбитальная станция MS1 — крупнейшая космическая тюрьма, где в анабиозе содержатся тысячи опасных преступников. Ходят слухи, что над погруженными в искусственный сон узниками проводятся противозаконные эксперименты. С расследованием на станцию отправлена комиссия во главе с Эмили Уорнок, дочерью президента США.Неожиданно ситуация выходит из-под контроля, и вся станция оказывается захвачена уголовниками. Спецагент Сноу, несправедливо обвиненный в государственной измене, получает задание проникнуть в самую неприступную тюрьму во Вселенной и спасти Эмили. Это его единственный шанс вернуть себе доброе имя и получить свободу.--Качество видео: BDRip 720p
Формат видео: MKV
Видео кодек: AVC (High@L4.1)
Аудио кодек: AC-3
Видео: AVC, 1280x536 (2.35:1), 23.976 fps, 2 608 Kbps (0.159 bit/pixel)
Аудио: AC-3, 48.0 KHz, 6 ch, 384 Kbps, CBR, 16 бит [RUS]
-- --

Знаете ли Вы, что...

  • Главные отрицательные герои – братья Алекс и Хайделл. Алек Хиделл – псевдоним, который использовал Ли Харви Освальд.
  • В одной из сцен Сноу отмечает: «Вопреки распространённому мнению, на самом деле я не Гудини». Гай Пирс играл Гарри Гудини в фильме «Смертельный номер» (2007).
  • «Крик Вильгельма» звучит в фильме в сцене, где заключенный спотыкается и падает сразу после выхода из стазиса.
  • Когда стазисные камеры первый раз открываются, можно видеть как одна из них открывается дважды.
  • Когда сценарий был завершен, режиссеры убедили Бессона, что им необходимо полностью «пре-визуализировать» будущий фильм с помощью раскадровки и анимированных моделей героев и декораций.
  • Пре-визуализация оказалась чрезвычайно полезна для глав технических департаментов, сумевших благодаря ей получить более четкое представление об особенностях экшн-сцен, а также каскадеров, которые уяснили себе, чего хотят добиться постановщики. А учитывая, что все технические специалисты были разного происхождения – из Бразилии, Ирландии, Франции, Сербии, - пре-визуализация успешно помогла им преодолеть языковой барьер.
  • Главным инициатором создания картины выступила французская компания (она же продюсировала ленту), съемки фильма проходили в Сербии, основные роли исполнили англоговорящие актеры, и при этом на проект распространялись ирландские налоговые льготы.
  • Часть объектов и декораций сочетала элементы технических конструкций и зеленого экрана – таковы, например, космический полицейский департамент в форме листка клевера, фоном которому служили Земля и космические глубины, или шоссе, где разворачивается погоня на мотоциклах.
  • Эпизод в Овальном кабинете был снят на пивоваренном заводе Amstel, расположенном в пригороде сербской столицы.
  • В то время как монтаж и цветокоррекция картины проходили во Франции, визуальными эффектами занималась ирландская студия Windmillane.

Скриншоты

Тех. данные (MI)

Общее
Уникальный идентификатор : 78434854436549091928012966512980064122 (0x3B0200E458DC3CFB21F57C296286F77A)
Полное имя : E:\тест\Lockout.2012.720p.BluRay.x264-LEONARDO_[scarabey.org].mkv
Формат : Matroska
Версия формата : Version 2
Размер файла : 2,03 Гбайт
Продолжительность : 1 ч. 35 м.
Общий поток : 3052 Кбит/сек
Название фильма : -=LEONARDO=-
Дата кодирования : UTC 2014-07-18 14:45:38
Программа кодирования : mkvmerge v5.0.1 ('Es ist Sommer') built on Oct 23 2011 00:46:40
Библиотека кодирования : libebml v1.2.2 + libmatroska v1.3.0
Видео
Идентификатор : 1
Формат : AVC
Формат/Информация : Advanced Video Codec
Профиль формата : High@L4.1
Параметр CABAC формата : Да
Параметр ReFrames формата : 9 кадров
Идентификатор кодека : V_MPEG4/ISO/AVC
Продолжительность : 1 ч. 35 м.
Битрейт : 2608 Кбит/сек
Ширина : 1280 пикселей
Высота : 536 пикселей
Соотношение сторон : 2,40:1
Режим частоты кадров : Постоянный
Частота кадров : 23,976 кадра/сек
Цветовое пространство : YUV
Субдискретизация насыщенности : 4:2:0
Битовая глубина : 8 бит
Тип развёртки : Прогрессивная
Бит/(Пиксели*Кадры) : 0.159
Размер потока : 1,74 Гбайт (85%)
Библиотека кодирования : x264 core 125 r2208 d9d2288
Настройки программы : cabac=1 / ref=9 / deblock=1:-3:-3 / analyse=0x3:0x133 / me=tesa / subme=11 / psy=1 / psy_rd=1.00:0.20 / mixed_ref=1 / me_range=32 / chroma_me=1 / trellis=2 / 8x8dct=1 / cqm=0 / deadzone=21,11 / fast_pskip=0 / chroma_qp_offset=-3 / threads=12 / lookahead_threads=2 / sliced_threads=0 / nr=0 / decimate=1 / interlaced=0 / bluray_compat=0 / constrained_intra=0 / bframes=12 / b_pyramid=2 / b_adapt=2 / b_bias=0 / direct=1 / weightb=1 / open_gop=0 / weightp=2 / keyint=250 / keyint_min=23 / scenecut=40 / intra_refresh=0 / rc=crf / mbtree=0 / crf=20.0 / qcomp=0.60 / qpmin=0 / qpmax=69 / qpstep=4 / ip_ratio=1.10 / pb_ratio=1.10 / aq=1:1.00
Язык : English
Default : Да
Forced : Нет
Аудио
Идентификатор : 2
Формат : AC-3
Формат/Информация : Audio Coding 3
Расширение режима : CM (complete main)
Параметр Endianness формата : Big
Идентификатор кодека : A_AC3
Продолжительность : 1 ч. 35 м.
Вид битрейта : Постоянный
Битрейт : 384 Кбит/сек
Каналы : 6 каналов
Расположение каналов : Front: L C R, Side: L R, LFE
Частота : 48,0 КГц
Битовая глубина : 16 бит
Метод сжатия : С потерями
Размер потока : 262 Мбайт (13%)
Язык : Russian
Default : Да
Forced : Да
Текст #1
Идентификатор : 3
Формат : UTF-8
Идентификатор кодека : S_TEXT/UTF8
Идентификатор кодека/Информация : UTF-8 Plain Text
Заголовок : voronine
Язык : Russian
Default : Нет
Forced : Нет
Текст #2
Идентификатор : 4
Формат : UTF-8
Идентификатор кодека : S_TEXT/UTF8
Идентификатор кодека/Информация : UTF-8 Plain Text
Язык : English
Default : Нет
Forced : Нет
Меню
00:00:00.000 : en:00:00:00.000
00:05:26.201 : en:00:05:26.201
00:10:16.991 : en:00:10:16.991
00:15:19.919 : en:00:15:19.919
00:22:28.973 : en:00:22:28.973
00:29:18.090 : en:00:29:18.090
00:35:32.839 : en:00:35:32.839
00:40:14.662 : en:00:40:14.662
00:45:55.920 : en:00:45:55.920
00:50:47.962 : en:00:50:47.962
00:55:28.575 : en:00:55:28.575
01:00:47.727 : en:01:00:47.727
01:05:55.869 : en:01:05:55.869
01:12:04.779 : en:01:12:04.779
01:17:49.290 : en:01:17:49.290
01:22:34.950 : en:01:22:34.950

_________________
[Торрент-статистика]
[Профиль]  [ЛС] 
Показать сообщения:    
Ответить на тему

Текущее время: Сегодня 03:16

Часовой пояс: GMT + 4



Вы не можете начинать темы
Вы не можете отвечать на сообщения
Вы не можете редактировать свои сообщения
Вы не можете удалять свои сообщения
Вы не можете голосовать в опросах
Вы не можете прикреплять файлы к сообщениям
Вы не можете скачивать файлы