Дружинники / The Watch (Акива Шаффер / Akiva Schaffer) [2013 г., фантастика, комедия, BDRip 720p] DUB + Sub

Ответить на тему
 
Автор
Сообщение

awk05 ®

Пол:

Стаж: 4 года 5 месяцев

Сообщений: 1352

Репутация: 275 [+] [-]

Откуда: Западная Украина Ривне

Пост 19-Июл-2014 18:19

[Цитировать] 

--Дружинники / The Watch
«Крыша нужна?»--
Год выпуска 2013
Страна: США
Жанр: фантастика, комедия
Продолжительность: 01:41:57
Перевод: Профессиональный (полное дублирование) Лицензия
Субтитры: Русские, английские--Режиссёр: Акива Шаффер / Akiva Schaffer--В ролях: Бен Стиллер (Evan), Винс Вон (Bob), Джона Хилл (Franklin), Ричард Айоади (Jamarcus), Розмари ДеУитт (Abby), Уилл Форте (Sgt. Bressman), Эрин Мориарти (Chelsea), Николас Браун (Jason), Р. Ли Эрми (Manfred), Билли Крудап (Neighbor), Мэл Родригез (Chucho), и др.--Описание: Сюжет фильма разворачивается вокруг дружной компании соседей, организовавших дружину ради патрулирования окрестностей и поддержания порядка. В действительности благие намерения были лишь поводом хотя бы изредка сбегать от семьи, дабы покутить вечерком в сугубо мужской компании. Безоблачная жизнь заканчивается в тот момент, когда соседский дозор случайно узнаёт о заговоре с целью уничтожить мир.--Качество видео: BDRip 720p
Формат видео: MKV
Видео кодек: AVC (High@L4.1)
Аудио кодек: AC-3
Видео: AVC, 1280x544 (2.35:1), 23.976 fps, 2 449 Kbps (0.147 bit/pixel)
Аудио: AC-3, 48.0 KHz, 6 ch, 640 Kbps, CBR, 16 бит [RUS]
-- --

Знаете ли Вы, что...

* Первоначально Дэвид Добкин собирался заниматься режиссурой с Уиллом Ферреллом в главной роли, но из-за ссоры этот дуэт распался летом 2009 года.
* Крис Такер рассматривался на роль Джамаркуса.
* Первоначально фильм был назван «Neighborhood Watch» (Соседский дозор), но название было изменено в связи с событиями, связанными с убийством Трэйвона Мартина (он был убит патрульным «соседского дозора» Джорджем Циммерманом).

Скриншоты

Тех. данные (MI)

Общее
Уникальный идентификатор : 98072622001446587011889763004725696052 (0x49C81995E94E2078D5FA757DA7219634)
Полное имя : E:\тест\The Watch.2012.720p.BluRay.x264-LEONARDO_[scarabey.org].mkv
Формат : Matroska
Версия формата : Version 2
Размер файла : 2,24 Гбайт
Продолжительность : 1 ч. 41 м.
Общий поток : 3152 Кбит/сек
Название фильма : -=LEONARDO=-
Дата кодирования : UTC 2014-07-18 16:01:03
Программа кодирования : mkvmerge v5.0.1 ('Es ist Sommer') built on Oct 23 2011 00:46:40
Библиотека кодирования : libebml v1.2.2 + libmatroska v1.3.0
Обложка : Yes
Видео
Идентификатор : 1
Формат : AVC
Формат/Информация : Advanced Video Codec
Профиль формата : High@L4.1
Параметр CABAC формата : Да
Параметр ReFrames формата : 9 кадров
Идентификатор кодека : V_MPEG4/ISO/AVC
Продолжительность : 1 ч. 41 м.
Битрейт : 2449 Кбит/сек
Ширина : 1280 пикселей
Высота : 544 пикселя
Соотношение сторон : 2,35:1
Режим частоты кадров : Постоянный
Частота кадров : 23,976 кадра/сек
Цветовое пространство : YUV
Субдискретизация насыщенности : 4:2:0
Битовая глубина : 8 бит
Тип развёртки : Прогрессивная
Бит/(Пиксели*Кадры) : 0.147
Размер потока : 1,74 Гбайт (78%)
Библиотека кодирования : x264 core 125 r2208 d9d2288
Настройки программы : cabac=1 / ref=9 / deblock=1:-3:-3 / analyse=0x3:0x133 / me=umh / subme=11 / psy=1 / psy_rd=1.00:0.20 / mixed_ref=1 / me_range=32 / chroma_me=1 / trellis=2 / 8x8dct=1 / cqm=0 / deadzone=21,11 / fast_pskip=0 / chroma_qp_offset=-3 / threads=12 / lookahead_threads=2 / sliced_threads=0 / nr=0 / decimate=1 / interlaced=0 / bluray_compat=0 / constrained_intra=0 / bframes=12 / b_pyramid=2 / b_adapt=2 / b_bias=0 / direct=1 / weightb=1 / open_gop=0 / weightp=2 / keyint=250 / keyint_min=23 / scenecut=40 / intra_refresh=0 / rc=crf / mbtree=0 / crf=20.0 / qcomp=0.60 / qpmin=0 / qpmax=69 / qpstep=4 / ip_ratio=1.10 / pb_ratio=1.10 / aq=1:1.00
Язык : English
Default : Да
Forced : Нет
Аудио
Идентификатор : 2
Формат : AC-3
Формат/Информация : Audio Coding 3
Расширение режима : CM (complete main)
Параметр Endianness формата : Big
Идентификатор кодека : A_AC3
Продолжительность : 1 ч. 41 м.
Вид битрейта : Постоянный
Битрейт : 640 Кбит/сек
Каналы : 6 каналов
Расположение каналов : Front: L C R, Side: L R, LFE
Частота : 48,0 КГц
Битовая глубина : 16 бит
Метод сжатия : С потерями
Размер потока : 467 Мбайт (20%)
Язык : Russian
Default : Да
Forced : Да
Текст #1
Идентификатор : 3
Формат : UTF-8
Идентификатор кодека : S_TEXT/UTF8
Идентификатор кодека/Информация : UTF-8 Plain Text
Язык : Russian
Default : Нет
Forced : Нет
Текст #2
Идентификатор : 4
Формат : UTF-8
Идентификатор кодека : S_TEXT/UTF8
Идентификатор кодека/Информация : UTF-8 Plain Text
Язык : English
Default : Нет
Forced : Нет
Меню
00:00:00.000 : en:00:00:00.000
00:04:17.257 : en:00:04:17.257
00:07:04.507 : en:00:07:04.507
00:09:58.807 : en:00:09:58.807
00:12:23.660 : en:00:12:23.660
00:18:01.747 : en:00:18:01.747
00:20:08.207 : en:00:20:08.207
00:22:10.538 : en:00:22:10.538
00:24:21.001 : en:00:24:21.001
00:29:13.627 : en:00:29:13.627
00:32:18.061 : en:00:32:18.061
00:33:15.911 : en:00:33:15.911
00:37:53.855 : en:00:37:53.855
00:39:25.238 : en:00:39:25.238
00:42:14.532 : en:00:42:14.532
00:47:40.149 : en:00:47:40.149
00:51:35.259 : en:00:51:35.259
00:55:15.020 : en:00:55:15.020
00:57:11.637 : en:00:57:11.637
00:59:47.000 : en:00:59:47.000
01:01:12.919 : en:01:01:12.919
01:05:16.663 : en:01:05:16.663
01:06:48.379 : en:01:06:48.379
01:09:24.160 : en:01:09:24.160
01:12:33.558 : en:01:12:33.558
01:14:26.045 : en:01:14:26.045
01:18:41.675 : en:01:18:41.675
01:20:22.026 : en:01:20:22.026
01:22:05.879 : en:01:22:05.879
01:25:33.295 : en:01:25:33.295
01:28:48.573 : en:01:28:48.573
01:35:36.814 : en:01:35:36.814

_________________
[Торрент-статистика]
[Профиль]  [ЛС] 
Показать сообщения:    
Ответить на тему

Текущее время: Сегодня 12:14

Часовой пояс: GMT + 4



Вы не можете начинать темы
Вы не можете отвечать на сообщения
Вы не можете редактировать свои сообщения
Вы не можете удалять свои сообщения
Вы не можете голосовать в опросах
Вы не можете прикреплять файлы к сообщениям
Вы не можете скачивать файлы