Где угодно / Everywhen (Йерен Брэян Хердал / Jarand Breian Herdal) [2013 г., фантастика, боевик, триллер, BDRip 720p] AVO + Original + Sub

Ответить на тему
 
Автор
Сообщение

awk05 ®

Пол:

Стаж: 8 лет 9 месяцев

Сообщений: 1334

Репутация: 278 [+] [-]

Откуда: Западная Украина Ривне

Пост 18-Июл-2014 16:23

[Цитировать] 

--Где угодно / Everywhen
«What if your reality was just one of many?»
-- Страна: Норвегия
Год выхода: 2013
Жанр: фантастика, боевик, триллер
Продолжительность: 01:02:19
Перевод: Любительское (одноголосое) [R.A.I.M] + Original
Субтитры: Russian, English--Режиссёр: Йерен Брэян Хердал / Jarand Breian Herdal--В ролях: Харальд Эвьен Фурухолмен, Хьюго Херрман, Филлип Ларсен, Рубен Лефгрен, Эллен Зиннев, Дик Тоннесен, Дик Уиттингтон, Джозеф Уиттингтон--Описание: Герои фильма живут в мире, где одним из самых привычных видов транспорта стала телепортация. Ежедневно миллионы людей пользуются телепортами, благодаря которым за считанные мгновения можно переместиться на громадные расстояния. Система телепортов считалась очень надежной, пока однажды в ней не произошел загадочный сбой. После этой аварии телепорты стали отправлять пассажиров, которые ими пользовались в параллельные миры. Многие из этих людей даже не сразу понимали, что оказались в иной вселенной...--Качество видео: BDRip 720p
Формат видео: MKV
Видео кодек: AVC (High@L4.1)
Аудио кодек: AC-3, DTS
Видео: AVC, 1280x544 (2.35:1), 24.000 fps, 5 720 Kbps (0.342 bit/pixel)
Аудио 1: AC-3, 48.0 KHz, 6 ch, 448 Kbps, CBR , 16 бит [RUS]
Аудио 2: DTS, 48.0 KHz, 6 ch, 1 510 Kbps, CBR, 24 бит [ENG] -- --

Скриншоты

Тех. данные (MI)

Файл
Формат: MKV
Качество: BDRip 720p [VeDeTT]
Видео: 5720 kb/s, 1280x544
Аудио: Russian: AC3, 448 kb/s (6 ch) / English: DTS, 1510 kb/s (6 ch)
Субтитры: Russian [MixBas], English
Дополнительно: Сохранены оригинальные чаптеры как на Blu-Ray
Размер: 3.48 GB
NFO
Показать
General
Everywhen.2013.Blu.Ray.720p.CINEMANIA.mkv
Format : Matroska
Format version : Version 4 / Version 2
File size : 3.48 GiB
Duration : 1h 4mn
Overall bit rate : 7 680 Kbps
Movie name : Release Group CINEMANIA
Encoded date : UTC 2014-06-15 08:39:08
Writing application : mkvmerge v7.0.0 ('Where We Going') 64bit built on Jun 9 2014 15:16:27
Writing library : libebml v1.3.0 + libmatroska v1.4.1
Video
ID : 1
Format : AVC
Format/Info : Advanced Video Codec
Format profile : High@L4.1
Format settings, CABAC : Yes
Format settings, ReFrames : 5 frames
Codec ID : V_MPEG4/ISO/AVC
Duration : 1h 4mn
Bit rate : 5 720 Kbps
Width : 1 280 pixels
Height : 544 pixels
Display aspect ratio : 2.35:1
Frame rate mode : Constant
Frame rate : 24.000 fps
Color space : YUV
Chroma subsampling : 4:2:0
Bit depth : 8 bits
Scan type : Progressive
Bits/(Pixel*Frame) : 0.342
Stream size : 2.53 GiB (73%)
Title : Release Group CINEMANIA
Writing library : x264 core 142 r2431 ac76440
Encoding settings : cabac=1 / ref=5 / deblock=1:0:0 / analyse=0x3:0x133 / me=umh / subme=7 / psy=1 / psy_rd=1.00:0.00 / mixed_ref=1 / me_range=16 / chroma_me=1 / trellis=1 / 8x8dct=1 / cqm=0 / deadzone=21,11 / fast_pskip=0 / chroma_qp_offset=-2 / threads=6 / lookahead_threads=1 / sliced_threads=0 / nr=0 / decimate=1 / interlaced=0 / bluray_compat=0 / constrained_intra=0 / bframes=3 / b_pyramid=2 / b_adapt=2 / b_bias=0 / direct=3 / weightb=1 / open_gop=0 / weightp=2 / keyint=250 / keyint_min=24 / scenecut=40 / intra_refresh=0 / rc_lookahead=50 / rc=2pass / mbtree=1 / bitrate=5720 / ratetol=1.0 / qcomp=0.60 / qpmin=0 / qpmax=69 / qpstep=4 / cplxblur=20.0 / qblur=0.5 / ip_ratio=1.40 / aq=1:1.00
Language : English
Default : Yes
Forced : No
Audio #1
ID : 2
Format : AC-3
Format/Info : Audio Coding 3
Mode extension : CM (complete main)
Format settings, Endianness : Big
Codec ID : A_AC3
Duration : 1h 4mn
Bit rate mode : Constant
Bit rate : 448 Kbps
Channel(s) : 6 channels
Channel positions : Front: L C R, Side: L R, LFE
Sampling rate : 48.0 KHz
Bit depth : 16 bits
Compression mode : Lossy
Stream size : 208 MiB (6%)
Title : R.A.I.M
Language : Russian
Default : Yes
Forced : Yes
Audio #2
ID : 3
Format : DTS
Format/Info : Digital Theater Systems
Mode : 16
Format settings, Endianness : Big
Codec ID : A_DTS
Duration : 1h 4mn
Bit rate mode : Constant
Bit rate : 1 509 Kbps
Channel(s) : 6 channels
Channel positions : Front: L C R, Side: L R, LFE
Sampling rate : 48.0 KHz
Bit depth : 24 bits
Compression mode : Lossy
Stream size : 701 MiB (20%)
Language : English
Default : No
Forced : No
Text #1
ID : 4
Format : UTF-8
Codec ID : S_TEXT/UTF8
Codec ID/Info : UTF-8 Plain Text
Title : MixBas
Language : Russian
Default : No
Forced : No
Text #2
ID : 5
Format : UTF-8
Codec ID : S_TEXT/UTF8
Codec ID/Info : UTF-8 Plain Text
Language : English
Default : No
Forced : No
Menu
00:00:00.000 : en:00:00:00.000
00:06:26.500 : en:00:06:26.500
00:09:19.500 : en:00:09:19.500
00:16:38.333 : en:00:16:38.333
00:23:45.875 : en:00:23:45.875
00:27:19.542 : en:00:27:19.542
00:33:29.375 : en:00:33:29.375
00:42:12.917 : en:00:42:12.917
00:56:25.250 : en:00:56:25.250
01:01:12.792 : en:01:01:12.792

_________________
[Торрент-статистика]
[Профиль]  [ЛС] 
Показать сообщения:    
Ответить на тему

Текущее время: Сегодня 06:26

Часовой пояс: GMT + 4



Вы не можете начинать темы
Вы не можете отвечать на сообщения
Вы не можете редактировать свои сообщения
Вы не можете удалять свои сообщения
Вы не можете голосовать в опросах
Вы не можете прикреплять файлы к сообщениям
Вы не можете скачивать файлы