Возмездие / The Railway Man (Джонатан Теплицки) [2013 г., Драма, Биография, BDRip 720p] DUB Чистый звук + Original + Sub

Ответить на тему
 
Автор
Сообщение

zeusarm ®

Стаж: 6 лет 9 месяцев

Сообщений: 1

Репутация: 0 [+] [-]

Пост 12-Июл-2014 02:41

[Цитировать] 

Возмездие / The Railway Man
Год выпуска: 2013
Страна: Австралия, Великобритания, Швейцария
Жанр: Драма, Биография
Продолжительность: 01:56:32
Перевод: Дублированный (Чистый звук)
Субтитры: Вшитые отключаемые
Язык субтитров: Английский (Full, SDH)
Режиссер: Джонатан Теплицки
В ролях: Джереми Ирвин, Колин Фёрт, Стеллан Скарсгард, Майкл МакКензи, Николь Кидман, Джеффри Даунтон, Танрох Ишида, Том Стоукс, Брайан Пробетс, Том Хоббс, Сэм Рид ...
Описание: История Эрика Ломакса. Во время Второй мировой войны этот британский офицер был схвачен японскими войсками, вследствие чего прошел все ужасы военных лагерей, где его пытали. В плену он вынужден был участвовать в строительстве железной дороги. После освобождения, лейтенанта Ломакса произвели в капитаны.
Десятилетия спустя долгое время мечтавший о возмездии военный решился на примирение, для чего встретился с одним из своих мучителей на мосту через реку Квай.

Тип релиза: BDRip 720p
Контейнер: MKV
Видео кодек: H264 (AVC)
Аудио кодек: AC3 (Dolby Digital)
Видео: AVC, 1280 x 528 (2.40:1), 23.976 fps, 5 215 Kbps (0.322 bit/pixel)
Аудио #1: AC3, 384 kbps (2 ch), 48 kHz, 16 bit [Русский, Дубляж]
Аудио #2: DTS, 1509 kbps (6 ch), 48 kHz, 24 bit [Английский]
Сэмпл: Скачать

MI

Код:
The Railway Man 2013 BDRip 720p.mkv
   General
      Unique ID : 194368466338297813423189972038486089527 (0x923A0144D531B9B0BCBD37D030945F37)
      Complete name :The Railway Man 2013 BDRip 720p.mkv
      Format : Matroska
      Format version : Version 4 / Version 2
      File size : 5.78 GiB
      Duration : 1h 56mn
      Overall bit rate : 7 110 Kbps
      Encoded date : UTC 2014-07-06 12:53:52
      Writing application : mkvmerge v7.0.0 ('Where We Going') 64bit built on Jun  9 2014 15:16:27
      Writing library : libebml v1.3.0 + libmatroska v1.4.1
      DURATION : 01:55:51.777000000
      NUMBER_OF_FRAMES : 1136
      NUMBER_OF_BYTES : 29854
      _STATISTICS_WRITING_APP : mkvmerge v7.0.0 ('Where We Going') 64bit built on Jun  9 2014 15:16:27
      _STATISTICS_WRITING_DATE_UTC : 2014-07-06 12:53:52
      _STATISTICS_TAGS : BPS DURATION NUMBER_OF_FRAMES NUMBER_OF_BYTES
   Video #1
      ID : 1
      Format : AVC
      Format/Info : Advanced Video Codec
      Format profile : High@L4.1
      Format settings, CABAC : Yes
      Format settings, ReFrames : 5 frames
      Codec ID : V_MPEG4/ISO/AVC
      Duration : 1h 56mn
      Bit rate : 5 215 Kbps
      Width : 1 280 pixels
      Height : 528 pixels
      Display aspect ratio : 2.40:1
      Original display aspect ratio : 2.40:1
      Frame rate : 23.976 fps
      Color space : YUV
      Chroma subsampling : 4:2:0
      Bit depth : 8 bits
      Scan type : Progressive
      Bits/(Pixel*Frame) : 0.322
      Stream size : 4.12 GiB (71%)
      Writing library : x264 core 142 r2409 d6b4e63
      Encoding settings : cabac=1 / ref=5 / deblock=1:-3:-3 / analyse=0x3:0x113 / me=umh / subme=8 / psy=1 / psy_rd=1.00:0.00 / mixed_ref=1 / me_range=16 / chroma_me=1 / trellis=1 / 8x8dct=1 / cqm=0 / deadzone=21,11 / fast_pskip=1 / chroma_qp_offset=-2 / threads=12 / lookahead_threads=2 / sliced_threads=0 / nr=0 / decimate=1 / interlaced=0 / bluray_compat=0 / constrained_intra=0 / bframes=3 / b_pyramid=2 / b_adapt=2 / b_bias=0 / direct=3 / weightb=1 / open_gop=0 / weightp=2 / keyint=240 / keyint_min=24 / scenecut=40 / intra_refresh=0 / rc_lookahead=50 / rc=2pass / mbtree=1 / bitrate=5215 / ratetol=1.0 / qcomp=0.60 / qpmin=0 / qpmax=69 / qpstep=4 / cplxblur=20.0 / qblur=0.5 / ip_ratio=1.40 / aq=1:1.00
      Language : English
      Default : Yes
      Forced : No
   Audio #2
      ID : 2
      Format : AC-3
      Format/Info : Audio Coding 3
      Mode extension : CM (complete main)
      Codec ID : A_AC3
      Duration : 1h 56mn
      Bit rate mode : Constant
      Bit rate : 384 Kbps
      Channel(s) : 2 channels
      Channel positions : Front: L R
      Sampling rate : 48.0 KHz
      Bit depth : 16 bits
      Compression mode : Lossy
      Delay relative to video : 4ms
      Stream size : 319 MiB (5%)
      Title : AC3 384Kbps (2ch) Russian (DUB "Pythagor")
      Language : Russian
      Default : Yes
      Forced : No
   Audio #3
      ID : 3
      Format : DTS
      Format/Info : Digital Theater Systems
      Codec ID : A_DTS
      Duration : 1h 56mn
      Bit rate mode : Constant
      Bit rate : 1 510 Kbps
      Channel(s) : 6 channels
      Channel positions : Front: L C R, Side: L R, LFE
      Sampling rate : 48.0 KHz
      Bit depth : 24 bits
      Compression mode : Lossy
      Stream size : 1.23 GiB (21%)
      Title : DTS 1509Kbps (6ch) English
      Language : English
      Default : No
      Forced : No
   Text #4
      ID : 4
      Format : UTF-8
      Codec ID : S_TEXT/UTF8
      Codec ID/Info : UTF-8 Plain Text
      Title : English (Full)
      Language : English
      Default : No
      Forced : No
   Text #5
      ID : 5
      Format : UTF-8
      Codec ID : S_TEXT/UTF8
      Codec ID/Info : UTF-8 Plain Text
      Title : English (SDH)
      Language : English
      Default : No
      Forced : No

Скриншоты

[Торрент-статистика]
[Профиль]  [ЛС] 
Показать сообщения:    
Ответить на тему

Текущее время: Сегодня 12:34

Часовой пояс: GMT + 4



Вы не можете начинать темы
Вы не можете отвечать на сообщения
Вы не можете редактировать свои сообщения
Вы не можете удалять свои сообщения
Вы не можете голосовать в опросах
Вы не можете прикреплять файлы к сообщениям
Вы не можете скачивать файлы