Кодер / Cypher (Винченцо Натали / Vincenzo Natali) [2002 г., Фантастика, Боевик, Триллер, HDRip 720p] DVO

Ответить на тему
 
Автор
Сообщение

awk05 ®

Пол:

Стаж: 8 лет 10 месяцев

Сообщений: 1334

Репутация: 278 [+] [-]

Откуда: Западная Украина Ривне

Пост 12-Июл-2014 01:55

[Цитировать] 

--Кодер / Cypher «Trust No One»-- Год выпуска: 2002
Страна: США, Канада
Жанр: Фантастика, Боевик, Триллер
Продолжительность: 01:35:15
Перевод: Двуголосый закадровый
Субтитры: отсутствуют--Режиссер: Винченцо Натали / Vincenzo Natali--Актеры: Джереми Нортэм (Morgan Sullivan), Люси Лью (Rita Foster), Найджел Беннетт (Finster), Тимоти Уэббер (Callaway), Дэвид Хьюлетт (Virgil C. Dunn), Кари Матчетт (Diane), Кристина Николл (Amy), Джозеф Скорен (Digicorp Technician #1), Стивен Браун (Digicorp Technician #2), Арнольд Пиннок (Pilot In Mensroom), ...--Описание фильма: Морган Салливан, уставший от занудной жизни и нелюбимой жены, охотно соглашается заниматься шпионажем для могущественной корпорации «Диджикорп». Он получает новое имя и простое задание с помощью секретного устройства передавать выступления конкурентов на конвенциях по всей стране. Несмотря на начавшиеся мигрени и странную боль в затылке, Морган наслаждается новой, тайной жизнью, но случайная встреча с загадочной Ритой вселяет в него страх и подозрения. По словам Риты, скучные собрания всего лишь ширма для зловещих операций «Диджикорпа», превращающего своих «шпионов» в послушных марионеток, утративших свое «я». Она делает ему укол и просит на следующей конвенции никак не реагировать на то, что он там увидит…--Качество видео: HDRip 720p
Формат видео: MKV
Видео кодек: AVC (High@L3.1)
Аудио кодек: AC-3
Видео: AVC, 1280x720 (16:9), 23.976 fps, 2 761 Kbps (0.125 bit/pixel)
Аудио: AC-3, 48.0 KHz, 6 ch, 384 Kbps, CBR, 16 бит [RUS] -- --

Скриншоты



Тех. данные (MI)

Общее
Уникальный идентификатор : 251242360070508482624894724362136472325 (0xBD0384B985778C4B8D9E85473A084B05)
Полное имя : G:\тест\Cypher.2002.[H.264.720p-LQ].HDRip.mkv
Формат : Matroska
Версия формата : Version 2
Размер файла : 2,10 Гбайт
Продолжительность : 1 ч. 35 м.
Общий поток : 3147 Кбит/сек
Дата кодирования : UTC 2011-10-28 20:14:19
Программа кодирования : mkvmerge v4.9.1 ('Ich will') сборка от Aug 10 2011 09:31:20
Библиотека кодирования : libebml v1.2.1 + libmatroska v1.2.0
Видео
Идентификатор : 1
Формат : AVC
Формат/Информация : Advanced Video Codec
Профиль формата : High@L3.1
Параметр CABAC формата : Да
Параметр ReFrames формата : 4 кадра
Идентификатор кодека : V_MPEG4/ISO/AVC
Продолжительность : 1 ч. 35 м.
Битрейт : 2761 Кбит/сек
Ширина : 1280 пикселей
Высота : 720 пикселей
Соотношение сторон : 16:9
Режим частоты кадров : Постоянный
Частота кадров : 23,976 кадра/сек
Цветовое пространство : YUV
Субдискретизация насыщенности : 4:2:0
Битовая глубина : 8 бит
Тип развёртки : Прогрессивная
Бит/(Пиксели*Кадры) : 0.125
Размер потока : 1,80 Гбайт (86%)
Библиотека кодирования : x264 core 116 r2074 2641b9e
Настройки программы : cabac=1 / ref=3 / deblock=1:-1:-1 / analyse=0x3:0x113 / me=hex / subme=7 / psy=1 / psy_rd=1.00:0.10 / mixed_ref=1 / me_range=16 / chroma_me=1 / trellis=1 / 8x8dct=1 / cqm=0 / deadzone=21,11 / fast_pskip=1 / chroma_qp_offset=-3 / threads=12 / sliced_threads=0 / nr=0 / decimate=1 / interlaced=0 / bluray_compat=0 / constrained_intra=0 / bframes=3 / b_pyramid=2 / b_adapt=1 / b_bias=0 / direct=1 / weightb=1 / open_gop=0 / weightp=2 / keyint=250 / keyint_min=23 / scenecut=40 / intra_refresh=0 / rc_lookahead=40 / rc=2pass / mbtree=1 / bitrate=2761 / ratetol=1.0 / qcomp=0.60 / qpmin=0 / qpmax=69 / qpstep=4 / cplxblur=20.0 / qblur=0.5 / ip_ratio=1.40 / aq=1:1.00
Default : Да
Forced : Нет
Аудио
Идентификатор : 2
Формат : AC-3
Формат/Информация : Audio Coding 3
Расширение режима : CM (complete main)
Параметр Endianness формата : Big
Идентификатор кодека : A_AC3
Продолжительность : 1 ч. 35 м.
Вид битрейта : Постоянный
Битрейт : 384 Кбит/сек
Каналы : 6 каналов
Расположение каналов : Front: L C R, Side: L R, LFE
Частота : 48,0 КГц
Битовая глубина : 16 бит
Метод сжатия : С потерями
Размер потока : 263 Мбайт (12%)
Default : Да
Forced : Нет

_________________
[Торрент-статистика]
[Профиль]  [ЛС] 
Показать сообщения:    
Ответить на тему

Текущее время: Сегодня 03:01

Часовой пояс: GMT + 4



Вы не можете начинать темы
Вы не можете отвечать на сообщения
Вы не можете редактировать свои сообщения
Вы не можете удалять свои сообщения
Вы не можете голосовать в опросах
Вы не можете прикреплять файлы к сообщениям
Вы не можете скачивать файлы