Долгое падение / A Long Way Down(Паскаль Шомель / Pascal Chaumeil)[2014 г., Комедия, драма, BDRip 720p] DUB |Line|

Ответить на тему
 
Автор
Сообщение

awk05 ®

Пол:

Стаж: 8 лет 10 месяцев

Сообщений: 1334

Репутация: 278 [+] [-]

Откуда: Западная Украина Ривне

Пост 09-Июл-2014 19:21

[Цитировать] 

--Долгое падение / A Long Way Down
Год выпуска: 2014
Производство: Великобритания, Германия, Wildgaze Films, BBC Films, DCM Productions
Жанр: Комедия, драма
Продолжительность: 01:36:27
Перевод: Дублированный |Line|
Субтитры: отсутствуют--Режиссер: Паскаль Шомель / Pascal Chaumeil--Актеры: Пирс Броснан (Martin), Имоджен Путс (Jess), Аарон Пол (JJ), Тони Коллетт (Maureen), Сэм Нил (Chris), Таппенс Мидлтон (Kathy), Розамунд Пайк (Penny), Джо Коул (Chas), Приянга Элан (Reporter), Джозеф Алтин (Matty), ...--Описание фильма: Четверо незнакомцев встречаются в канун Нового Года на крыше лондонского небоскреба. Каждый из них поднялся с одной целью - прыгнуть. Очередь в лучший мир заставляет их заключить пакт - дожить до Дня всех влюбленных и оторваться по полной.--Качество видео: BDRip 720p
Формат видео: MKV
Видео кодек: AVC (High@L4.1)
Аудио кодек: AC-3
Видео: AVC, 1280x536 (2.40:1), 24.000 fps, 2 947 Kbps (0.179 bit/pixel)
Аудио 1: AC-3, 48.0 KHz, 2 ch, 192 Kbps, CBR, 16 бит [RUS]
Аудио 2: AC-3, 48.0 KHz, 6 ch, 640 Kbps, CBR, 16 бит [ENG] -- --

Знаете ли Вы, что...

* Джонни Депп купил права на экранизацию еще до того, как была выпущена книга.
* Эмиль Хирш мог сыграть роль Джей Джея, но в итоге он покинул проект из-за несогласованности рабочих графиков, а его роль досталась Аарону Полу.
* Когда Мартин подбирает Джей Джея с его фургоном, идёт сильный дождь. Но в сцене, когда показывают Джей Джея справа, можно заметить, что дождь лишь слегка моросит.
* Когда Джей Джей и Джесс идут к месту, где пропала сестра Джесс, они смотрят на пролетающих над ними стрижей. Стрижи мигрируют и зимуют в тропиках, а соответственно их не может быть в Великобритании в период с января по февраль, когда происходят события фильма.
* Персонажи договариваются о совместном совершении самоубийства в период с кануна Нового года – до Дня Святого Валентина. Когда Мартин и Джесс встречают её отца напротив здания парламента, часы на башне показывают 4:40 вечера. Учитывая время года, когда происходят события, на улице должно быть темно, но в кадре при этом ярко светит солнце.

Скриншоты

Тех. данные (MI)

Общее
Уникальный идентификатор : 240489488268229899124014618059122990122 (0xB4EC97369526921599AEC7E5E2A4DC2A)
Полное имя : D:\Video\A.Long.Way.Down.2014.BDRip.720p.mkv
Формат : Matroska
Версия формата : Version 4 / Version 2
Размер файла : 2,60 Гбайт
Продолжительность : 1 ч. 36 м.
Общий поток : 3856 Кбит/сек
Дата кодирования : UTC 2014-07-06 22:55:31
Программа кодирования : mkvmerge v6.3.0 ('You can't stop me!') built on Jun 28 2013 20:09:41
Библиотека кодирования : libebml v1.3.0 + libmatroska v1.4.0
Видео
Идентификатор : 1
Формат : AVC
Формат/Информация : Advanced Video Codec
Профиль формата : High@L4.1
Параметр CABAC формата : Да
Параметр ReFrames формата : 5 кадров
Идентификатор кодека : V_MPEG4/ISO/AVC
Продолжительность : 1 ч. 36 м.
Битрейт : 2947 Кбит/сек
Ширина : 1280 пикселей
Высота : 536 пикселей
Соотношение сторон : 2,40:1
Режим частоты кадров : Постоянный
Частота кадров : 24,000 кадра/сек
Цветовое пространство : YUV
Субдискретизация насыщенности : 4:2:0
Битовая глубина : 8 бит
Тип развёртки : Прогрессивная
Бит/(Пиксели*Кадры) : 0.179
Размер потока : 1,99 Гбайт (76%)
Библиотека кодирования : x264 core 142 r2431 ac76440
Язык : English
Default : Да
Forced : Нет
Аудио #1
Идентификатор : 2
Формат : AC-3
Формат/Информация : Audio Coding 3
Расширение режима : CM (complete main)
Параметр Endianness формата : Big
Идентификатор кодека : A_AC3
Продолжительность : 1 ч. 36 м.
Вид битрейта : Постоянный
Битрейт : 192 Кбит/сек
Каналы : 2 канала
Расположение каналов : Front: L R
Частота : 48,0 КГц
Битовая глубина : 16 бит
Метод сжатия : С потерями
Размер потока : 132 Мбайт (5%)
Язык : Russian
Default : Да
Forced : Нет
Аудио #2
Идентификатор : 3
Формат : AC-3
Формат/Информация : Audio Coding 3
Расширение режима : CM (complete main)
Параметр Endianness формата : Big
Идентификатор кодека : A_AC3
Продолжительность : 1 ч. 36 м.
Вид битрейта : Постоянный
Битрейт : 640 Кбит/сек
Каналы : 6 каналов
Расположение каналов : Front: L C R, Side: L R, LFE
Частота : 48,0 КГц
Битовая глубина : 16 бит
Метод сжатия : С потерями
Размер потока : 442 Мбайт (17%)
Язык : English
Default : Нет
Forced : Нет
Меню
00:00:00.000 : en:00:00:00.000
00:23:26.875 : en:00:23:26.875
00:42:35.000 : en:00:42:35.000
01:07:28.500 : en:01:07:28.500

_________________
[Торрент-статистика]
[Профиль]  [ЛС] 
Показать сообщения:    
Ответить на тему

Текущее время: Сегодня 05:44

Часовой пояс: GMT + 4



Вы не можете начинать темы
Вы не можете отвечать на сообщения
Вы не можете редактировать свои сообщения
Вы не можете удалять свои сообщения
Вы не можете голосовать в опросах
Вы не можете прикреплять файлы к сообщениям
Вы не можете скачивать файлы