Центурион / Centurion (Нил Маршалл / Neil Marshall) [2010 г., боевик, триллер, драма, приключения, военный, история, BDRip 720p] Dub

Ответить на тему
 
Автор
Сообщение

awk05 ®

Пол:

Стаж: 8 лет 9 месяцев

Сообщений: 1334

Репутация: 278 [+] [-]

Откуда: Западная Украина Ривне

Пост 07-Июл-2014 18:44

[Цитировать] 

--Центурион / Centurion
«Сражайся или умри»
-- Год выхода: 2010
Страна: Франция, Великобритания
Жанр: боевик, триллер, драма, приключения, военный, история
Продолжительность: 01:37:30
Перевод: Профессиональный (полное дублирование) Лицензия
Cубтитры: Russian, English--Режиссер: Нил Маршалл / Neil Marshall--В ролях: Майкл Фассбендер (Centurion Quintus Dias), Ольга Куриленко (Etain), Доминик Уэст (General Titus Flavius Virilus), Джей Джей Филд (Thax), Андреас Висневски (Commander Gratus), Дэвид Леджено (Vortix), Аксель Кэролин (Aeron), Даффер Лабидин (Arm Wrestling Opponent), Ли Росс (Septus), Дэвид Моррисси (Bothos), Саймон Чадвик (Carlisle Messenger), Ульрих Томсен (Gorlacon--О фильме: Действие разворачивается в 117 году нашей эры. Главный герой — Квинтус Диас — единственный человек, уцелевший после налёта пиктов на пограничную римскую крепость. Вместе с легендарным Девятым легионом он отправляется на север, чтобы стереть с лица земли пиктов и уничтожить их предводителя, Горлакона.--Качество видео: BDRip 720p
Формат видео: MKV
Видео кодек: AVC (High@L4.1)
Аудио кодек: AC-3
Видео: AVC, 1280x544 (2.35:1), 23.976 fps, 6 078 Kbps (0.364 bit/pixel)
Аудио: AC-3, 48.0 KHz, 6 ch, 448 Kbps, CBR, 16 бит [RUS] -- --

Скриншоты



Тех. данные (MI)

General
Unique ID : 339653528538925066000617447866398099491 (0xFF86E3DFC1714D95C07BEF07DA3B4823)
Complete name : E:\тест\Centurion.2010.720p.BluRay.x264-LEONARDO.mkv
Format : Matroska
Format version : Version 2
File size : 4.53 GiB
Duration : 1h 37mn
Overall bit rate : 6 658 Kbps
Movie name : -=LEONARDO=-
Encoded date : UTC 2014-04-25 15:16:43
Writing application : mkvmerge v5.0.1 ('Es ist Sommer') built on Oct 23 2011 00:46:40
Writing library : libebml v1.2.2 + libmatroska v1.3.0
Video
ID : 1
Format : AVC
Format/Info : Advanced Video Codec
Format profile : High@L4.1
Format settings, CABAC : Yes
Format settings, ReFrames : 9 frames
Codec ID : V_MPEG4/ISO/AVC
Duration : 1h 37mn
Bit rate : 6 078 Kbps
Width : 1 280 pixels
Height : 544 pixels
Display aspect ratio : 2.35:1
Frame rate mode : Constant
Frame rate : 23.976 fps
Color space : YUV
Chroma subsampling : 4:2:0
Bit depth : 8 bits
Scan type : Progressive
Bits/(Pixel*Frame) : 0.364
Stream size : 4.14 GiB (91%)
Writing library : x264 core 125 r2208 d9d2288
Encoding settings : cabac=1 / ref=9 / deblock=1:-3:-3 / analyse=0x3:0x133 / me=tesa / subme=11 / psy=1 / psy_rd=1.00:0.20 / mixed_ref=1 / me_range=32 / chroma_me=1 / trellis=2 / 8x8dct=1 / cqm=0 / deadzone=21,11 / fast_pskip=0 / chroma_qp_offset=-3 / threads=12 / lookahead_threads=2 / sliced_threads=0 / nr=0 / decimate=1 / interlaced=0 / bluray_compat=0 / constrained_intra=0 / bframes=8 / b_pyramid=2 / b_adapt=2 / b_bias=0 / direct=1 / weightb=1 / open_gop=0 / weightp=2 / keyint=250 / keyint_min=23 / scenecut=40 / intra_refresh=0 / rc=crf / mbtree=0 / crf=19.0 / qcomp=0.60 / qpmin=0 / qpmax=69 / qpstep=4 / ip_ratio=1.15 / pb_ratio=1.10 / aq=1:1.00
Language : English
Default : Yes
Forced : No
Audio
ID : 2
Format : AC-3
Format/Info : Audio Coding 3
Mode extension : CM (complete main)
Format settings, Endianness : Big
Codec ID : A_AC3
Duration : 1h 37mn
Bit rate mode : Constant
Bit rate : 448 Kbps
Channel(s) : 6 channels
Channel positions : Front: L C R, Side: L R, LFE
Sampling rate : 48.0 KHz
Bit depth : 16 bits
Compression mode : Lossy
Stream size : 312 MiB (7%)
Language : Russian
Default : Yes
Forced : Yes
Text #1
ID : 3
Format : UTF-8
Codec ID : S_TEXT/UTF8
Codec ID/Info : UTF-8 Plain Text
Title : Forced
Language : Russian
Default : Yes
Forced : Yes
Text #2
ID : 4
Format : UTF-8
Codec ID : S_TEXT/UTF8
Codec ID/Info : UTF-8 Plain Text
Title : Voronine
Language : Russian
Default : No
Forced : No
Text #3
ID : 5
Format : UTF-8
Codec ID : S_TEXT/UTF8
Codec ID/Info : UTF-8 Plain Text
Language : English
Default : No
Forced : No

_________________
[Торрент-статистика]
[Профиль]  [ЛС] 
Показать сообщения:    
Ответить на тему

Текущее время: Сегодня 11:22

Часовой пояс: GMT + 4



Вы не можете начинать темы
Вы не можете отвечать на сообщения
Вы не можете редактировать свои сообщения
Вы не можете удалять свои сообщения
Вы не можете голосовать в опросах
Вы не можете прикреплять файлы к сообщениям
Вы не можете скачивать файлы