Кайт / Kite (Ральф Зиман / Ralph Ziman) [2014 г., боевик, WEB-DL 720p] DUB iTunes

Ответить на тему
 
Автор
Сообщение

awk05 ®

Пол:

Стаж: 8 лет 9 месяцев

Сообщений: 1334

Репутация: 278 [+] [-]

Откуда: Западная Украина Ривне

Пост 07-Июл-2014 17:48

[Цитировать] 

--Кайт / Kite
«Месть будет красивой»--
Год выпуска 2014
Страна: США, Мексика
Жанр: боевик
Продолжительность: 01:29:50
Перевод: Дублированное [iTunes]
Субтитры: отсутствуют--Режиссёр: Ральф Зиман / Ralph Ziman--В ролях: Индиа Айсли (Sawa), Сэмюэл Л. Джексон (Karl Aker), Каллэн МакОлифф (Oburi), Карл Бьюкс (...), Девилль Ванник (Numbers Punk), Деон Лотз (...), Теренс Бриджетт (...), Лайонел Ньютон (...), Джеко Мюллер (Kratsov), ...--Описание: Когда отец девушки по имени Кайт, полицейский, гибнет от рук мафии, она клянется найти и покарать виновных. Ее опекуном в этом нелегком деле становится Карл, напарник ее отца. Полная решимости отомстить за смерть родных, Кайт под руководством Карла становится холодным и бескомпромиссным убийцей. У ее жертв нет шанса на выживание, Кайт справляется с ними легко и жестоко. Появление в ее жизни ловкого и бесстрашного молодого человека резко меняет жизнь Кайт, которая начинает понимать, что и убийце не чужды чувства…--Качество видео: BDRip 720p
Формат видео: MKV
Видео кодек: AVC (Main@L3.1)
Аудио кодек: AC-3
Видео: AVC, 1280x540 (2.35:1), 24.000 fps, 4 098 Kbps (0.247 bit/pixel)
Аудио: AC-3, 48.0 KHz, 6 ch, 384 Kbps, CBR , 16 бит [RUS] -- --

Знаете ли Вы, что...

* Изначально режиссером проекта был Дэвид Р. Эллис, но, когда часть фильма уже была отснята, Эллис был найден мертвым в ванной своего гостиничного номера в Йоханнесбурге. В результате эту должность получил Ральф Зиман.
* Съемки проходили в Йоханнесбурге.

Скриншоты

Тех. данные (MI)

General
Unique ID : 197161929238270601239822555545258815352 (0x9454019F95995F8087C03815B529EF78)
Complete name : E:\тест\Kait.2014.D.WEB-DL.720p.mkv
Format : Matroska
Format version : Version 4 / Version 2
File size : 2.87 GiB
Duration : 1h 29mn
Overall bit rate : 4 573 Kbps
Encoded date : UTC 2014-07-07 06:54:36
Writing application : mkvmerge v6.9.1 ('Blue Panther') 64bit built on Apr 18 2014 18:23:38
Writing library : libebml v1.3.0 + libmatroska v1.4.1
Video
ID : 1
Format : AVC
Format/Info : Advanced Video Codec
Format profile : Main@L3.1
Format settings, CABAC : No
Format settings, ReFrames : 2 frames
Codec ID : V_MPEG4/ISO/AVC
Duration : 1h 29mn
Bit rate : 4 098 Kbps
Width : 1 280 pixels
Height : 540 pixels
Display aspect ratio : 2.40:1
Frame rate mode : Constant
Frame rate : 24.000 fps
Color space : YUV
Chroma subsampling : 4:2:0
Bit depth : 8 bits
Scan type : Progressive
Bits/(Pixel*Frame) : 0.247
Stream size : 2.57 GiB (90%)
Language : English
Default : Yes
Forced : No
Color primaries : BT.709
Transfer characteristics : BT.709
Matrix coefficients : BT.709
Audio
ID : 2
Format : AC-3
Format/Info : Audio Coding 3
Mode extension : CM (complete main)
Format settings, Endianness : Big
Codec ID : A_AC3
Duration : 1h 29mn
Bit rate mode : Constant
Bit rate : 384 Kbps
Channel(s) : 6 channels
Channel positions : Front: L C R, Side: L R, LFE
Sampling rate : 48.0 KHz
Bit depth : 16 bits
Compression mode : Lossy
Stream size : 247 MiB (8%)
Language : Russian
Default : Yes
Forced : No
Menu
00:00:00.000 : en:Глава 1
00:04:59.000 : en:Глава 2
00:10:29.000 : en:Глава 3
00:15:33.000 : en:Глава 4
00:20:44.000 : en:Глава 5
00:26:41.000 : en:Глава 6
00:31:57.000 : en:Глава 7
00:37:56.000 : en:Глава 8
00:42:30.000 : en:Глава 9
00:47:00.000 : en:Глава 10
00:52:16.000 : en:Глава 11
00:57:38.000 : en:Глава 12
01:02:19.000 : en:Глава 13
01:07:43.000 : en:Глава 14
01:13:56.000 : en:Глава 15
01:22:08.000 : en:Глава 16

_________________
[Торрент-статистика]
[Профиль]  [ЛС] 
Показать сообщения:    
Ответить на тему

Текущее время: Сегодня 05:21

Часовой пояс: GMT + 4



Вы не можете начинать темы
Вы не можете отвечать на сообщения
Вы не можете редактировать свои сообщения
Вы не можете удалять свои сообщения
Вы не можете голосовать в опросах
Вы не можете прикреплять файлы к сообщениям
Вы не можете скачивать файлы