Секретные материалы: Борьба за будущее / The X-files: Fight the future (Роб Боуман / Rob Bowman) [1998, США, ужасы, фантастика, триллер, HDTV 1080i] Dub

Ответить на тему
 
Автор
Сообщение

sergei78 ®

Пол:

Стаж: 7 лет 6 месяцев

Сообщений: 89

Репутация: 120 [+] [-]

Откуда: Бывший СССР: "Связист Кстово 100/40"

Пост 30-Июн-2014 23:56

[Цитировать] 

-Секретные материалы: Борьба за будущее / The X-files: Fight the future
«The Truth is something you're never guess, never have predicted»
- Год выпуска: 1998
Страна: США
Жанр: ужасы, фантастика, триллер
Продолжительность: 01:49:47
Перевод: Профессиональный (полное дублирование)-Режиссер: Роб Боуман / Rob Bowman
В ролях: Дэвид Духовны /David Duchovny/, Джилиан Андерсон /Gillian Anderson/, Джон Нэвил /John Neville/, Митч Пилледжи /Mitch Pileggi/, Мартин Ландау /Martin Landau/-Описание: Даллас, штат Техас. Бомба террориста уничтожает здание. В ходе расследования спецагенты ФБР Фокс Малдер и Дана Скалли сталкиваются с тайным заговором, превосходящим по опасности все, что они до этого встречали. Рискуя собственной жизнью и карьерой, Молдер и Скалли делают все для уничтожения смертельного вируса, способного поразить все живое на Земле и, возможно, имеющего внеземное происхождение.
В этой погоне за правдой они выходят на таинственный синдикат, состоящий из могущественных людей, которые не остановятся ни перед чем ради сохранения своих секретов. Люди синдиката преследуют агентов в техасской пещере, штабе ФБР и на секретной базе в Антарктике, хранящей самый главный секрет...-Доп. информация:
Здесь самая полная картинка, в отличие от BD и DVD.-Тип релиза: HDTV
Контейнер: TS
Видео кодек: H264 (AVC)
Аудио кодек: MP2
Видео: AVC, 1920x1080 (16/9), 25.000 fps, 12.8 Mbps (0.248 bit/pixel)
Аудио: MP2, 48.0 KHz, 2 ch, 192 Kbps, CBR-

MediaInfo

Общее
Идентификатор : 3 (0x3)
Полное имя : K:\екретные материалы. Борьба за будущее.TS
Формат : MPEG-TS
Размер файла : 10,8 Гбайт
Продолжительность : 1 ч. 49 м.
Режим общего битрейта : Переменный
Общий поток : 14,1 Мбит/сек-Видео
Идентификатор : 2141 (0x85D)
Идентификатор меню : 21004 (0x520C)
Формат : AVC
Формат/Информация : Advanced Video Codec
Профиль формата : Main@L4.0
Параметр CABAC формата : Да
Параметр ReFrames формата : 3 кадра
Идентификатор кодека : 27
Продолжительность : 1 ч. 49 м.
Битрейт : 13,2 Мбит/сек
Ширина : 1920 пикселей
Высота : 1080 пикселей
Соотношение сторон : 16:9
Частота кадров : 25,000 кадров/сек
Стандарт вещания : Component
Цветовое пространство : YUV
Субдискретизация насыщенности : 4:2:0
Битовая глубина : 8 бит
Тип развёртки : Чересстрочная
Порядок развёртки : Верхнее поле первое
Бит/(Пиксели*Кадры) : 0.255
Размер потока : 10,1 Гбайт (94%)
Основные цвета : BT.709
Характеристики трансфера : BT.709
Коэффициенты матрицы : BT.709-Аудио
Идентификатор : 2142 (0x85E)
Идентификатор меню : 21004 (0x520C)
Формат : MPEG Audio
Версия формата : Version 1
Профиль формата : Layer 2
Идентификатор кодека : 4
Продолжительность : 1 ч. 49 м.
Вид битрейта : Постоянный
Битрейт : 192 Кбит/сек
Каналы : 2 канала
Частота : 48,0 КГц
Метод сжатия : С потерями
Задержка видео : -9 мс.
Размер потока : 151 Мбайт (1%)
Язык : Russian

Скриншоты


- - -
[Торрент-статистика]
[Профиль]  [ЛС] 
Показать сообщения:    
Ответить на тему

Текущее время: Сегодня 11:13

Часовой пояс: GMT + 4



Вы не можете начинать темы
Вы не можете отвечать на сообщения
Вы не можете редактировать свои сообщения
Вы не можете удалять свои сообщения
Вы не можете голосовать в опросах
Вы не можете прикреплять файлы к сообщениям
Вы не можете скачивать файлы