Девочка на велосипеде / Girl on a Bicycle ( Джереми Левин / Jeremy Leven) [2013 г., драма, мелодрама, комедия, WEB-DL 720p]

Ответить на тему
 
Автор
Сообщение

awk05 ®

Пол:

Стаж: 8 лет 9 месяцев

Сообщений: 1334

Репутация: 278 [+] [-]

Откуда: Западная Украина Ривне

Пост 12-Июн-2014 18:07

[Цитировать] 

--Девочка на велосипеде / Girl on a Bicycle-- Год выпуска: 2013
Страна: США, Германия
Жанр: драма, мелодрама, комедия
Продолжительность: 01:41:19
Перевод: Профессиональное (многоголосое) [Нтв+]
Субтитры: отсутствуют--Режиссер: Джереми Левин / Jeremy Leven--В ролях:Винченцо Амато (Paolo), Нора Чирнер (Greta), Пэдди Консидайн (Derek), Луиз Моно (Cécile), Стефан Дебак (Francois), Брайс Форнье (Claude Chardon), Келли Ширли (Marta), Кристин Ситти (...), Кьяра де Лука (Police Woman), ...--Описание: Итальянец Паоло — водитель автобуса, который развозит туристов по Парижу. Его цель: познакомить других (и себя в том числе) с французской столицей. Кроме того, у Паоло есть и другие планы на жизнь. Он хочет добиться любви немецкой стюардессы Греты. Казалось, он уже готов сделать ей предложение руки и сердца, если бы не девушка на велосипеде, встреча с которой навсегда переворачивает жизнь итальянца. Обворожительная француженка Сесиль — одинокая мать, модель. Встреча с ней не выходит из головы Паоло. При этом он любит Грету. Тогда его лучший друг Дерек, британский сердцеед, дает ему роковой совет…--Качество видео:WEB-DL 720p
Формат видео: MKV
Видео кодек: AVC (High@L4.0)
Аудио кодек: AC-3
Видео: AVC, 1280x544 (2.35:1), 23.976 fps, 3 327 Kbps (0.199 bit/pixel)
Аудио 1: AC-3, 48.0 KHz, 6 ch, 384 Kbps, CBR, 16 бит [RUS]
Аудио 2: AC-3, 48.0 KHz, 6 ch, 384 Kbps, CBR, 16 бит [ENG]-- -

Скриншоты

Тех. данные (MI)

Общее
Уникальный идентификатор : 188447459617579981594826877012542785442 (0x8DC5A91949D3C16C87C465D099B487A2)
Полное имя : E:\тест\Girl.on.a.Bicycle.2013.WEB-DL.720p.CINEMANIA.mkv
Формат : Matroska
Версия формата : Version 4 / Version 2
Размер файла : 2,90 Гбайт
Продолжительность : 1 ч. 41 м.
Общий поток : 4096 Кбит/сек
Название фильма : Release Group CINEMANIA
Дата кодирования : UTC 2014-06-10 23:26:57
Программа кодирования : mkvmerge v7.0.0 ('Where We Going') 64bit built on Jun 9 2014 15:16:27
Библиотека кодирования : libebml v1.3.0 + libmatroska v1.4.1
Видео
Идентификатор : 1
Формат : AVC
Формат/Информация : Advanced Video Codec
Профиль формата : High@L4.0
Параметр CABAC формата : Да
Параметр ReFrames формата : 8 кадров
Идентификатор кодека : V_MPEG4/ISO/AVC
Продолжительность : 1 ч. 41 м.
Битрейт : 3327 Кбит/сек
Ширина : 1280 пикселей
Высота : 544 пикселя
Соотношение сторон : 2,35:1
Режим частоты кадров : Постоянный
Частота кадров : 23,976 кадра/сек
Цветовое пространство : YUV
Субдискретизация насыщенности : 4:2:0
Битовая глубина : 8 бит
Тип развёртки : Прогрессивная
Бит/(Пиксели*Кадры) : 0.199
Размер потока : 2,30 Гбайт (79%)
Заголовок : Release Group CINEMANIA
Библиотека кодирования : x264 core 130 r2273 b3065e6
Настройки программы : cabac=1 / ref=8 / deblock=1:-1:-1 / analyse=0x3:0x133 / me=umh / subme=7 / psy=1 / psy_rd=1.00:0.10 / mixed_ref=1 / me_range=16 / chroma_me=1 / trellis=2 / 8x8dct=1 / cqm=0 / deadzone=21,11 / fast_pskip=0 / chroma_qp_offset=-3 / threads=6 / lookahead_threads=1 / sliced_threads=0 / nr=0 / decimate=1 / interlaced=0 / bluray_compat=0 / constrained_intra=0 / bframes=3 / b_pyramid=2 / b_adapt=2 / b_bias=0 / direct=3 / weightb=1 / open_gop=0 / weightp=2 / keyint=250 / keyint_min=23 / scenecut=40 / intra_refresh=0 / rc_lookahead=50 / rc=2pass / mbtree=1 / bitrate=3327 / ratetol=1.0 / qcomp=0.60 / qpmin=0 / qpmax=69 / qpstep=4 / cplxblur=20.0 / qblur=0.5 / ip_ratio=1.40 / aq=1:1.00
Default : Нет
Forced : Нет
Аудио #1
Идентификатор : 2
Формат : AC-3
Формат/Информация : Audio Coding 3
Расширение режима : CM (complete main)
Параметр Endianness формата : Big
Идентификатор кодека : A_AC3
Продолжительность : 1 ч. 41 м.
Вид битрейта : Постоянный
Битрейт : 384 Кбит/сек
Каналы : 6 каналов
Расположение каналов : Front: L C R, Side: L R, LFE
Частота : 48,0 КГц
Битовая глубина : 16 бит
Метод сжатия : С потерями
Размер потока : 278 Мбайт (9%)
Заголовок : Нтв+
Язык : Russian
Default : Да
Forced : Да
Аудио #2
Идентификатор : 3
Формат : AC-3
Формат/Информация : Audio Coding 3
Расширение режима : CM (complete main)
Параметр Endianness формата : Big
Идентификатор кодека : A_AC3
Продолжительность : 1 ч. 41 м.
Вид битрейта : Постоянный
Битрейт : 384 Кбит/сек
Каналы : 6 каналов
Расположение каналов : Front: L C R, Side: L R, LFE
Частота : 48,0 КГц
Битовая глубина : 16 бит
Метод сжатия : С потерями
Размер потока : 278 Мбайт (9%)
Язык : English
Default : Нет
Forced : Нет
Меню
00:00:00.000 : en:Opening
00:05:15.000 : en:Propose
00:13:40.000 : en:A Drink in Munich
00:17:24.000 : en:First Encounter
00:25:28.000 : en:Pursuit
00:31:37.000 : en:Double Life
00:36:32.000 : en:"Papa"
00:52:57.000 : en:Anniversary
01:07:15.000 : en:New Bike
01:17:24.000 : en:Out!
01:26:20.000 : en:Salvage
01:35:39.000 : en:Happy Ending

_________________
[Торрент-статистика]
[Профиль]  [ЛС] 
Показать сообщения:    
Ответить на тему

Текущее время: Сегодня 11:16

Часовой пояс: GMT + 4



Вы не можете начинать темы
Вы не можете отвечать на сообщения
Вы не можете редактировать свои сообщения
Вы не можете удалять свои сообщения
Вы не можете голосовать в опросах
Вы не можете прикреплять файлы к сообщениям
Вы не можете скачивать файлы