Любовь сквозь время / Winter's Tale ( Акива Голдсман / Akiva Goldsman) [2014 г., фэнтези, драма, мелодрама, детектив, WEB-DL.720p]

Ответить на тему
 
Автор
Сообщение

awk05 ®

Пол:

Стаж: 8 лет 9 месяцев

Сообщений: 1334

Репутация: 278 [+] [-]

Откуда: Западная Украина Ривне

Пост 07-Июн-2014 21:15

[Цитировать] 

--Любовь сквозь время / Winter's Tale«Когда случаются чудеса»-- Год выпуска: 2014 г.
Страна: США
Жанр: фэнтези, драма, мелодрама, детектив
Продолжительность: 01:58:02
Перевод: Профессиональный (дублированный) - [чистый звук]
Cубтитры: нет--Режиссер: Акива Голдсман / Akiva Goldsman--В ролях: Колин Фаррелл (Peter Lake), Джессика Браун-Финдли (Beverly Penn), Рассел Кроу (Pearly Soames), Дженнифер Коннелли (Virginia Gamely), Уилл Смит (Judge), Уильям Хёрт (Isaac Penn), МакКайла Твиггс (Young Willa), Ева Мари Сэйнт (Adult Willa), Рипли Собо (Abby), Джошуа Генри (Gravesman), ...--Описание: Действие фильма происходит одновременно в XIX веке и в наше время на Манхэттене. Воришка Питер Лэйк влюбляется в умирающую Беверли Пенн, девушку, живущую в доме, который он только что обчистил. Любовь его может оказаться не только чистой и искренней, но еще и последней, так как по пятам за ним ходят приспешники босса местной мафии, который намеревается прикончить Питера. Однажды, когда гангстерам почти удается отправить паренька на тот свет, его спасает… волшебный белый конь. Спустя некоторое время, удирая от очередной бригады бандитов, конь и его мальчик врезаются в стену из облаков и исчезают на многие годы. Возвращаются они тогда, когда в Нью-Йорке бушует пожар, и Питер обнаруживает в себе качества настоящего Мессии: он видит и слышит то, что недоступно другим; он помнит всех умерших и творит чудеса, достойные самого Спасителя.--Качество видео:WEB-DL.720p
Формат видео: MKV
Видео кодек: AVC (High@L4.1)
Аудио кодек: AC3
Видео: AVC, 1280x528 (2.40:1), 23.976 fps, 3 500 Kbps (0.216 bit/pixel)
Аудио 1: AC-3, 48.0 KHz, 6 ch, 384 Kbps, CBR [RUS]
Аудио 2: AC-3, 48.0 KHz, 6 ch, 384 Kbps, CBR [ENG]-- --

Знаете ли Вы, что...

* Фильм снят по мотивам романа Марка Хелприна «Зимняя сказка» (Winter`s Tale, 1983).
* Первоначально для работы над визуальными эффектами фильма была нанята компания «Rhythm and Hues», но она обанкротилась в 2013-м году. Завершала работу над фильмом уже другая компания — «Framestore».
* Том Хиддлстон, Гаррет Хедлунд, Аарон Тейлор-Джонсон, Люк Эванс, Лиам Хемсворт и Бенджамин Уокер рассматривались на роль Питера Лэйка, но в итоге роль досталась Колину Фарреллу.
* Белла Хиткот, Лили Коллинз, Сара Гадон, Габриэлла Уайлд и Элизабет Олсен пробовались на роль, которая в итоге отошла Джессике Браун-Финдли.
* Ханс Циммер написал большую часть музыки для фильма, прежде чем он был вынужден покинуть проект, чтобы закончить свою работу над фильмами «12 лет рабства» (2013) и «Новый Человек-паук: Высокое напряжение» (2014). Чтобы дописать саундтрек к фильму Циммер пригласил своего друга Руперта Грегсона-Уильямса.

Скриншоты



Тех. данные (MI)

Общее
Уникальный идентификатор : 193417220892031861210675862841831159935 (0x9182CD3F54DF2D44B702C8316B63787F)
Полное имя : E:\тест\W1nt3r.Tale.2014.D.WEB-DL.720p.mkv
Формат : Matroska
Версия формата : Version 2
Размер файла : 3,49 Гбайт
Продолжительность : 1 ч. 58 м.
Общий поток : 4234 Кбит/сек
Дата кодирования : UTC 2014-06-03 01:08:08
Программа кодирования : mkvmerge v5.2.0 ('I can't explain') built on Dec 18 2011 18:12:03
Библиотека кодирования : libebml v1.2.3 + libmatroska v1.3.0
TITLE : Winter's Tale
ARTIST : Akiva Goldsman
DATE_RELEASED : 2014-06-03T07:00:00Z
GENRE : Drama
DESCRIPTION : Academy Award®-winning screenwriter Akiva Goldsman writes, produces and makes his directorial debut
SYNOPSIS : Academy Award®-winning screenwriter Akiva Goldsman writes, produces and makes his directorial debut with this timeless supernatural fantasy based on Mark Helprin's best-selling novel. Set in a mythic New York City and spanning more than a century, it is a story of miracles, crossed destinies and the age-old battle between good and evil. Colin Farrell plays a turn-of-the-century Irish thief who encounters a terminally ill heiress while robbing her house. Falling irrevocably in love with her, his only option is to discover a way to stop time and bring her back from death. In addition to the sweeping, romantic story, Akiva Goldsman's passion project features a remarkable roster of acting talent including Downton Abbey's Jessica Brown Findlay and Oscar® winners Jennifer Connelly, William Hurt, Eva Marie Saint and Russell Crowe.
Видео
Идентификатор : 1
Формат : AVC
Формат/Информация : Advanced Video Codec
Профиль формата : High@L4.1
Параметр CABAC формата : Да
Параметр ReFrames формата : 4 кадра
Идентификатор кодека : V_MPEG4/ISO/AVC
Продолжительность : 1 ч. 58 м.
Битрейт : 3500 Кбит/сек
Ширина : 1280 пикселей
Высота : 528 пикселей
Соотношение сторон : 2,40:1
Режим частоты кадров : Постоянный
Частота кадров : 23,976 кадра/сек
Цветовое пространство : YUV
Субдискретизация насыщенности : 4:2:0
Битовая глубина : 8 бит
Тип развёртки : Прогрессивная
Бит/(Пиксели*Кадры) : 0.216
Размер потока : 2,79 Гбайт (80%)
Библиотека кодирования : x264 core 130 r2273 b3065e6
Настройки программы : cabac=1 / ref=1 / deblock=1:0:0 / analyse=0x3:0x113 / me=hex / subme=2 / psy=1 / psy_rd=1.00:0.00 / mixed_ref=0 / me_range=16 / chroma_me=1 / trellis=0 / 8x8dct=1 / cqm=0 / deadzone=21,11 / fast_pskip=1 / chroma_qp_offset=0 / threads=12 / lookahead_threads=4 / sliced_threads=0 / nr=0 / decimate=1 / interlaced=0 / bluray_compat=0 / constrained_intra=0 / bframes=3 / b_pyramid=2 / b_adapt=1 / b_bias=0 / direct=1 / weightb=1 / open_gop=0 / weightp=1 / keyint=240 / keyint_min=24 / scenecut=40 / intra_refresh=0 / rc_lookahead=10 / rc=abr / mbtree=1 / bitrate=3500 / ratetol=1.0 / qcomp=0.60 / qpmin=0 / qpmax=69 / qpstep=4 / vbv_maxrate=62500 / vbv_bufsize=78125 / nal_hrd=none / ip_ratio=1.40 / aq=1:1.00
Язык : English
Default : Да
Forced : Нет
Основные цвета : BT.709
Характеристики трансфера : BT.709
Коэффициенты матрицы : BT.709
Аудио #1
Идентификатор : 2
Формат : AC-3
Формат/Информация : Audio Coding 3
Расширение режима : CM (complete main)
Параметр Endianness формата : Big
Идентификатор кодека : A_AC3
Продолжительность : 1 ч. 58 м.
Вид битрейта : Постоянный
Битрейт : 384 Кбит/сек
Каналы : 6 каналов
Расположение каналов : Front: L C R, Side: L R, LFE
Частота : 48,0 КГц
Битовая глубина : 16 бит
Метод сжатия : С потерями
Размер потока : 324 Мбайт (9%)
Язык : Russian
Default : Да
Forced : Нет
Аудио #2
Идентификатор : 3
Формат : AC-3
Формат/Информация : Audio Coding 3
Расширение режима : CM (complete main)
Параметр Endianness формата : Big
Идентификатор кодека : A_AC3
Продолжительность : 1 ч. 58 м.
Вид битрейта : Постоянный
Битрейт : 384 Кбит/сек
Каналы : 6 каналов
Расположение каналов : Front: L C R, Side: L R, LFE
Частота : 48,0 КГц
Битовая глубина : 16 бит
Метод сжатия : С потерями
Размер потока : 324 Мбайт (9%)
Язык : English
Default : Нет
Forced : Нет
Меню
00:00:00.000 : en:Chapter 1
00:10:45.061 : en:Chapter 2
00:20:09.000 : en:Chapter 3
00:30:40.006 : en:Chapter 4
00:40:13.079 : en:Chapter 5
00:52:37.032 : en:Chapter 6
01:00:17.075 : en:Chapter 7
01:09:26.041 : en:Chapter 8
01:20:43.051 : en:Chapter 9
01:30:54.037 : en:Chapter 10
01:39:53.034 : en:Chapter 11
01:50:38.054 : en:Chapter 12

_________________
[Торрент-статистика]
[Профиль]  [ЛС] 
Показать сообщения:    
Ответить на тему

Текущее время: Сегодня 11:31

Часовой пояс: GMT + 4



Вы не можете начинать темы
Вы не можете отвечать на сообщения
Вы не можете редактировать свои сообщения
Вы не можете удалять свои сообщения
Вы не можете голосовать в опросах
Вы не можете прикреплять файлы к сообщениям
Вы не можете скачивать файлы