Суши girl / The Ramen Girl (Роберт Аллан Экерман) [2008 г., Комедия, мелодрама, драма, BDRip 1080p]

Ответить на тему
 
Автор
Сообщение

luis5 ®

Пол:

Стаж: 7 лет 6 месяцев

Сообщений: 108

Репутация: 51 [+] [-]

Откуда: Кузбасс

Пост 19-Май-2014 02:22

[Цитировать] 

--Суши girl / The Ramen Girl-- Год выпуска: 2008
Страна: США, Япония
Студия: Digital Site Corporation
Жанр: Комедия, мелодрама, драма
Продолжительность: 01:42:29
Перевод: Профессиональный (двухголосый закадровый)
Cубтитры: русские, английские
Режиссер: Роберт Аллан Экерман / Robert Allan Ackerman
В ролях: Бриттани Мерфи, Косэй Асами, Тошиюки Нишида, Гэбриел Манн, Акико Моно, Харуки Кобаяши, Кимико Ё, Мария Абе, Рэндзи Исибаси-Описание: «Убитая» изменой бойфренда, Эбби и сама не могла объяснить, как очутилась в Токио. Одинокая и потерянная в чужом городе, она не спешит обратно домой. Новые яркие впечатления помогут заглушить боль предательства и начать жизнь с «чистого листа». От нечего делать Эбби устраивается на работу в ресторанчик, где гостям предлагают попробовать самый изысканный суп рамен.
Видя, какой магический эффект оказывает этот суп на посетителей, она мечтает научиться искусству приготовления этого супа. Она умоляет гениального повара — сушиста, взрывного и тираничного японца, взять ее в ученицы. Капризный японец вдоволь поизмывается над Эбби, но откроет ей главный секрет: главный ингредиент супа — это целая вселенная чувств, подаренная поваром каждому посетителю.-
Тип релиза: BDRip 1080p
Контейнер: MKV
Видео кодек: MPEG-4 AVC
Аудио кодек: DTS
Видео: MPEG-4 AVC Video 10.7 Mbps 1920 x 1040 p / 24 fps / 1.846:1 / High Profile 4.1
Аудио 1: DTS Audio Russian 1510 kbps 5.1 / 48 kHz / 24-bit
Аудио 2: DTS Audio English 1510 kbps 5.1 / 48 kHz / 24-bit

Mediainfo

General
Complete name : F:\Фильмы\Суши girl (2008. The Ramen Girl).mkv
Format : Matroska
File size : 9.83 GiB
Duration : 1h 42mn
Overall bit rate : 13.7 Mbps
Movie name : The.Ramen.Girl.2008.Blu-ray.1080p.x264.DTS.MySilu
Encoded date : UTC 2012-01-12 04:26:21
Writing application : mkvmerge v4.9.1 ('Ich will') сборка от Jul 11 2011 23:53:15
Writing library : libebml v1.2.1 + libmatroska v1.1.1
Video
ID : 1
Format : AVC
Format/Info : Advanced Video Codec
Format profile : High@L4.1
Format settings, CABAC : Yes
Format settings, ReFrames : 4 frames
Muxing mode : Container profile=Unknown@4.1
Codec ID : V_MPEG4/ISO/AVC
Duration : 1h 42mn
Bit rate : 10.7 Mbps
Width : 1 920 pixels
Height : 1 040 pixels
Display aspect ratio : 16:9
Frame rate : 23.976 fps
Color space : YUV
Chroma subsampling : 4:2:0
Bit depth : 8 bits
Scan type : Progressive
Bits/(Pixel*Frame) : 0.224
Stream size : 7.47 GiB (76%)
Title : The.Ramen.Girl.2008.Blu-ray.1080p.x264.DTS.MySilu
Writing library : x264 core 120 r2120 0c7dab9
Encoding settings : cabac=1 / ref=4 / deblock=1:-2:-2 / analyse=0x3:0x113 / me=umh / subme=10 / psy=1 / psy_rd=1.20:0.20 / mixed_ref=1 / me_range=32 / chroma_me=1 / trellis=2 / 8x8dct=1 / cqm=0 / deadzone=21,11 / fast_pskip=0 / chroma_qp_offset=-3 / threads=6 / sliced_threads=0 / nr=0 / decimate=0 / interlaced=0 / bluray_compat=0 / constrained_intra=0 / bframes=5 / b_pyramid=2 / b_adapt=2 / b_bias=0 / direct=3 / weightb=1 / open_gop=0 / weightp=2 / keyint=250 / keyint_min=2 / scenecut=40 / intra_refresh=0 / rc_lookahead=72 / rc=2pass / mbtree=1 / bitrate=10708 / ratetol=1.0 / qcomp=0.60 / qpmin=10 / qpmax=51 / qpstep=4 / cplxblur=20.0 / qblur=0.5 / vbv_maxrate=38000 / vbv_bufsize=38000 / nal_hrd=none / ip_ratio=1.40 / aq=1:1.00
Language : English
Audio #1
ID : 2
Format : DTS
Format/Info : Digital Theater Systems
Codec ID : A_DTS
Duration : 1h 42mn
Bit rate mode : Constant
Bit rate : 1 510 Kbps
Channel(s) : 6 channels
Channel positions : Front: L C R, Side: L R, LFE
Sampling rate : 48.0 KHz
Bit depth : 24 bits
Stream size : 1.08 GiB (11%)
Title : R5
Language : Russian
Audio #2
ID : 3
Format : DTS
Format/Info : Digital Theater Systems
Codec ID : A_DTS
Duration : 1h 42mn
Bit rate mode : Constant
Bit rate : 1 510 Kbps
Channel(s) : 6 channels
Channel positions : Front: L C R, Side: L R, LFE
Sampling rate : 48.0 KHz
Bit depth : 24 bits
Stream size : 1.08 GiB (11%)
Language : English
Text #1
ID : 4
Format : UTF-8
Codec ID : S_TEXT/UTF8
Codec ID/Info : UTF-8 Plain Text
Language : Russian
Text #2
ID : 5
Format : UTF-8
Codec ID : S_TEXT/UTF8
Codec ID/Info : UTF-8 Plain Text
Language : English

Скриншоты

[Торрент-статистика]
[Профиль]  [ЛС] 
Показать сообщения:    
Ответить на тему

Текущее время: Сегодня 05:14

Часовой пояс: GMT + 4



Вы не можете начинать темы
Вы не можете отвечать на сообщения
Вы не можете редактировать свои сообщения
Вы не можете удалять свои сообщения
Вы не можете голосовать в опросах
Вы не можете прикреплять файлы к сообщениям
Вы не можете скачивать файлы