Джонни Мнемоник / Johnny Mnemonic (Роберт Лонго / Robert Longo) [1995 г., фантастика, боевик, BDRip 1080p] DVO + MVO + ENG + (Sub Rus, Eng)

Ответить на тему
 
Автор
Сообщение

Я Бот ®

Стаж: 7 лет 5 месяцев

Сообщений: 20

Репутация: 23 [+] [-]

Пост 17-Май-2014 21:42

[Цитировать] 

--Джонни Мнемоник / Johnny Mnemonic-- Год выпуска: 1995
Страна: Канада, США
Жанр: фантастика, боевик
Продолжительность: 01:36:41
Перевод: Профессиональный (Двухголосый, закадровый) EA Cinema + Профессиональный (многоголосый, закадровый) + Оригинал
Cубтитры: русские (полные, форсированные), английские--Режиссер: Роберт Лонго / Robert Longo--В ролях: Киану Ривз, Дина Мейер, Айс-Ти, Такеши Китано, Деннис Акаяма, Дольф Лундгрен, Генри Роллинз, Барбара Зукова, Удо Кир, Трейси Туид--Описание: В насквозь кибернетизированном будущем самый ценный товар — информация, доставляемая курьерами в самом надежном месте — в их собственном мозгу. Для того, чтобы преуспеть в этом бизнесе, Джонни «стер» воспоминания детства и расширил память сверхсовременных компьютерных приспособлений.
Но и этого оказалось мало для информации, которую он взялся доставить. Если ее вовремя не сгрузить, то Джонни погибнет. Ставки велики, и информацию из головы (можно и с головой, но без Джонни) желает получить вездесущая японская мафия, подключающая к столь тонкому делу проповедника…-- --Качество: BDRip 1080p
Формат: MKV
Видео кодек: x264
Аудио кодек: AC-3
Видео: 1920x1080, 9956 Kbps, 23.976 fps
Аудио #1: AC-3, 6 ch, 448 kbps (Rus)
Аудио #2: AC-3, 6 ch, 448 kbps (Rus)
Аудио #3: AC-3, 6 ch, 640 kbps (Eng)
Чаптеры: Есть--

МедиаИнфо:

Общее
Уникальный идентификатор : 247804374101455220474084863648714465091 (0xBA6D62EDF1415B2F926DE82B63A01F43)
Полное имя : Джонни Мнемоник.1995.BDRip.1080p.Rus.Eng.mkv
Формат : Matroska
Версия формата : Version 2
Размер файла : 7,76 Гбайт
Продолжительность : 1 ч. 36 м.
Общий поток : 11,5 Мбит/сек
Название фильма : Джонни Мнемоник.1995
Дата кодирования : UTC 2013-05-21 15:40:32
Программа кодирования : mkvmerge v5.8.0 ('No Sleep / Pillow') built on Sep 2 2012 15:37:04
Библиотека кодирования : libebml v1.2.3 + libmatroska v1.3.0
Видео
Идентификатор : 1
Формат : AVC
Формат/Информация : Advanced Video Codec
Профиль формата : High@L4.1
Параметр CABAC формата : Да
Параметр ReFrames формата : 4 кадра
Идентификатор кодека : V_MPEG4/ISO/AVC
Продолжительность : 1 ч. 36 м.
Битрейт : 9956 Кбит/сек
Ширина : 1920 пикселей
Высота : 1080 пикселей
Соотношение сторон : 16:9
Режим частоты кадров : Постоянный
Частота кадров : 23,976 кадра/сек
Цветовое пространство : YUV
Субдискретизация насыщенности : 4:2:0
Битовая глубина : 8 бит
Тип развёртки : Прогрессивная
Бит/(Пиксели*Кадры) : 0.200
Размер потока : 6,57 Гбайт (85%)
Заголовок : Rip by Boriy
Библиотека кодирования : x264 core 132 r2310 76a5c3a
Настройки программы : cabac=1 / ref=4 / deblock=1:-3:-3 / analyse=0x3:0x113 / me=umh / subme=10 / psy=1 / psy_rd=1.00:0.10 / mixed_ref=1 / me_range=32 / chroma_me=1 / trellis=2 / 8x8dct=1 / cqm=0 / deadzone=21,11 / fast_pskip=0 / chroma_qp_offset=-2 / threads=12 / lookahead_threads=1 / sliced_threads=0 / nr=0 / decimate=0 / interlaced=0 / bluray_compat=0 / constrained_intra=0 / bframes=5 / b_pyramid=2 / b_adapt=2 / b_bias=0 / direct=3 / weightb=1 / open_gop=0 / weightp=2 / keyint=240 / keyint_min=23 / scenecut=40 / intra_refresh=0 / rc=2pass / mbtree=0 / bitrate=9956 / ratetol=1.0 / qcomp=0.60 / qpmin=0 / qpmax=69 / qpstep=4 / cplxblur=20.0 / qblur=0.5 / ip_ratio=1.40 / pb_ratio=1.30 / aq=1:0.80
Язык : English
Default : Да
Forced : Нет
Аудио #1
Идентификатор : 2
Формат : AC-3
Формат/Информация : Audio Coding 3
Расширение режима : CM (complete main)
Параметр Endianness формата : Big
Идентификатор кодека : A_AC3
Продолжительность : 1 ч. 36 м.
Вид битрейта : Постоянный
Битрейт : 448 Кбит/сек
Каналы : 6 каналов
Расположение каналов : Front: L C R, Side: L R, LFE
Частота : 48,0 КГц
Битовая глубина : 16 бит
Метод сжатия : С потерями
Размер потока : 310 Мбайт (4%)
Заголовок : Профессиональный (Двухголосый, закадровый) EA Cinema
Язык : Russian
Default : Да
Forced : Нет
Аудио #2
Идентификатор : 3
Формат : AC-3
Формат/Информация : Audio Coding 3
Расширение режима : CM (complete main)
Параметр Endianness формата : Big
Идентификатор кодека : A_AC3
Продолжительность : 1 ч. 36 м.
Вид битрейта : Постоянный
Битрейт : 448 Кбит/сек
Каналы : 6 каналов
Расположение каналов : Front: L C R, Side: L R, LFE
Частота : 48,0 КГц
Битовая глубина : 16 бит
Метод сжатия : С потерями
Размер потока : 310 Мбайт (4%)
Заголовок : Профессиональный (многоголосый, закадровый)
Язык : Russian
Default : Нет
Forced : Нет
Аудио #3
Идентификатор : 4
Формат : AC-3
Формат/Информация : Audio Coding 3
Расширение режима : CM (complete main)
Параметр Endianness формата : Big
Идентификатор кодека : A_AC3
Продолжительность : 1 ч. 36 м.
Вид битрейта : Постоянный
Битрейт : 640 Кбит/сек
Каналы : 6 каналов
Расположение каналов : Front: L C R, Side: L R, LFE
Частота : 48,0 КГц
Битовая глубина : 16 бит
Метод сжатия : С потерями
Размер потока : 443 Мбайт (6%)
Заголовок : Оригинал
Язык : English
Default : Нет
Forced : Нет
Текст #1
Идентификатор : 5
Формат : UTF-8
Идентификатор кодека : S_TEXT/UTF8
Идентификатор кодека/Информация : UTF-8 Plain Text
Заголовок : Forced
Язык : Russian
Default : Да
Forced : Да
Текст #2
Идентификатор : 6
Формат : UTF-8
Идентификатор кодека : S_TEXT/UTF8
Идентификатор кодека/Информация : UTF-8 Plain Text
Заголовок : Full
Язык : Russian
Default : Нет
Forced : Нет
Текст #3
Идентификатор : 7
Формат : UTF-8
Идентификатор кодека : S_TEXT/UTF8
Идентификатор кодека/Информация : UTF-8 Plain Text
Заголовок : Full
Язык : English
Default : Нет
Forced : Нет
Меню
00:00:00.000 : :Chapter 1
00:06:55.206 : :Chapter 2
00:15:55.454 : :Chapter 3
00:22:11.913 : :Chapter 4
00:33:15.493 : :Chapter 5
00:37:56.273 : :Chapter 6
00:46:44.968 : :Chapter 7
00:54:26.930 : :Chapter 8
01:01:41.363 : :Chapter 9
01:08:22.555 : :Chapter 10
01:16:36.216 : :Chapter 11
01:23:23.206 : :Chapter 12

Скриншоты

[Торрент-статистика]
[Профиль]  [ЛС] 
Показать сообщения:    
Ответить на тему

Текущее время: Сегодня 11:25

Часовой пояс: GMT + 4



Вы не можете начинать темы
Вы не можете отвечать на сообщения
Вы не можете редактировать свои сообщения
Вы не можете удалять свои сообщения
Вы не можете голосовать в опросах
Вы не можете прикреплять файлы к сообщениям
Вы не можете скачивать файлы