Разумное сомнение / Reasonable Doubt (Питер Хауит / Peter Howitt)[2014 г., триллер, криминал, BDRip 720p] MVO Позитив + AVO Михаил Яроцкий, ViruseProject - Александр Харченко, datynet, qwerty + Sub

Ответить на тему
 
Автор
Сообщение

awk05 ®

Пол:

Стаж: 8 лет 10 месяцев

Сообщений: 1334

Репутация: 278 [+] [-]

Откуда: Западная Украина Ривне

Пост 14-Май-2014 21:27

[Цитировать] 

--Разумное сомнение / Reasonable Doubt-- Год выхода: 2014
Выпущено: Германия, Канада
Жанр: триллер, криминал
Продолжительность: 01:31:18
Озвучивание: Профессиональное (многоголосое) [Позитив], Авторское (одноголосое) [Михаил Яроцкий], Любительское (одноголосое) [ViruseProject - Александр Харченко], Любительское (одноголосое) [datynet], Любительское (одноголосое) [qwerty]
Субтитры: Russian [notabenoid], English--Режиссер: Питер Хауит / Peter Howitt--В ролях: Доминик Купер (Mitch Brockden), Сэмюэл Л. Джексон (Clinton Davis), Глория Рубен (Det. Blake Kanon), Райан Роббинс (Jimmy Logan), Эрин Карплак (Rachel Brockden), Дилан Тейлор (Stuart Wilson), Дин Хардер (Terry Roberts), Карсон Нэттрасс (Officer Travis), Джон Б. Лоу (Judge G. Mckenna), ...--О фильме: Митч Брокден – вполне благополучный и законопослушный гражданин, он примерный семьянин и, сделав неплохую карьеру, занимает пост окружного прокурора. Но однажды жизнь подвергает его серьезному испытанию – Митч становится виновником дорожного происшествия, и по его вине погибает человек. Но поскольку дело происходит поздним временем в безлюдном месте, Митч решает скрыться с места преступления и просто умолчать о произошедшем, оставив себе муки совести.
Вскоре за это преступление обвиняют другого человека, а Митч принимает участие в расследовании дела. Приложив все усилия к тому, чтобы оправдать невиновного, Митч добивается успеха, но вскоре понимает, что все гораздо запутаннее, чем казалось на первый взгляд. Но изначально вступив на путь лжи, Митч не может никого посвятить в свою тайну и поэтому вынужден самостоятельно распутывать эту паутину, которая угрожает уже не только благополучию, но и жизни его близких.--Качество видео:BDRip 720p
Формат видео: MKV
Видео кодек: AVC (High@L4.1)
Аудио кодек: AC3, DTS
Видео: 1280x534 (2,40:1), 23,976 кадра/сек, 5 600 Кбит/сек, (0.342 бит/пиксели*кадры)
Аудио #1: AC-3, 48.0 KHz, 2 ch, 224 Kbps, CBR [RUS]
Аудио #2: AC-3, 48.0 KHz, 6 ch, 384 Kbps, CBR [RUS]
Аудио #3: AC-3, 48.0 KHz, 2 ch, 192 Kbps, CBR [RUS]
Аудио #4: AC-3, 44.1 KHz, 2 ch, 192 Kbps, CBR [RUS]
Аудио #5: AC-3, 48.0 KHz, 2 ch, 192 Kbps, CBR [RUS]
Аудио #6: DTS , 48.0 KHz, 6 ch, 1 510 Kbps, CBR [ENG]-- --

Тех. данные (MI)

Общее
Reasonable.Doubt.2014.Blu.Ray.720p.CINEMANIA.mkv
Формат : Matroska
Версия формата : Version 4 / Version 2
Размер файла : 5,24 Гбайт
Продолжительность : 1 ч. 31 м.
Общий поток : 8219 Кбит/сек
Название фильма : Release Group CINEMANIA
Дата кодирования : UTC 2014-04-20 00:10:52
Программа кодирования : mkvmerge v6.9.1 ('Blue Panther') 64bit built on Apr 18 2014 18:23:38
Библиотека кодирования : libebml v1.3.0 + libmatroska v1.4.1
Видео
Идентификатор : 1
Формат : AVC
Формат/Информация : Advanced Video Codec
Профиль формата : High@L4.1
Параметр CABAC формата : Да
Параметр ReFrames формата : 12 кадров
Идентификатор кодека : V_MPEG4/ISO/AVC
Продолжительность : 1 ч. 31 м.
Битрейт : 5600 Кбит/сек
Ширина : 1280 пикселей
Высота : 534 пикселя
Соотношение сторон : 2,40:1
Режим частоты кадров : Постоянный
Частота кадров : 23,976 кадра/сек
Цветовое пространство : YUV
Субдискретизация насыщенности : 4:2:0
Битовая глубина : 8 бит
Тип развёртки : Прогрессивная
Бит/(Пиксели*Кадры) : 0.342
Размер потока : 3,42 Гбайт (65%)
Заголовок : Release Group CINEMANIA
Библиотека кодирования : x264 core 140 r2377+40 929f149 tMod [8-bit@4:2:0 X86_64]
Настройки программы : cabac=1 / ref=12 / deblock=1:-3:-3 / analyse=0x3:0x113 / me=umh / subme=11 / psy=1 / fade_compensate=0.00 / psy_rd=1.10:0.00 / mixed_ref=1 / me_range=32 / chroma_me=1 / trellis=2 / 8x8dct=1 / cqm=0 / deadzone=21,11 / fast_pskip=0 / chroma_qp_offset=-2 / threads=18 / lookahead_threads=3 / sliced_threads=0 / nr=0 / decimate=0 / interlaced=0 / bluray_compat=0 / constrained_intra=0 / fgo=0 / bframes=8 / b_pyramid=2 / b_adapt=2 / b_bias=0 / direct=3 / weightb=1 / open_gop=0 / weightp=2 / keyint=240 / keyint_min=24 / scenecut=40 / intra_refresh=0 / rc=2pass / mbtree=0 / bitrate=5600 / ratetol=1.0 / qcomp=0.70 / qpmin=0:0:0 / qpmax=69:69:69 / qpstep=4 / cplxblur=20.0 / qblur=0.5 / ip_ratio=1.10 / pb_ratio=1.20 / aq=4:0.75 / aq-sensitivity=10.00 / aq-factor=1.00:1.00:1.00 / aq2=0 / aq3=0
Default : Да
Forced : Нет
Аудио #1
Идентификатор : 2
Формат : AC-3
Формат/Информация : Audio Coding 3
Расширение режима : CM (complete main)
Параметр Endianness формата : Big
Идентификатор кодека : A_AC3
Продолжительность : 1 ч. 31 м.
Вид битрейта : Постоянный
Битрейт : 224 Кбит/сек
Каналы : 2 канала
Расположение каналов : Front: L R
Частота : 48,0 КГц
Битовая глубина : 16 бит
Метод сжатия : С потерями
Размер потока : 146 Мбайт (3%)
Заголовок : Позитив
Язык : Russian
Default : Да
Forced : Да
Аудио #2
Идентификатор : 3
Формат : AC-3
Формат/Информация : Audio Coding 3
Расширение режима : CM (complete main)
Параметр Endianness формата : Big
Идентификатор кодека : A_AC3
Продолжительность : 1 ч. 31 м.
Вид битрейта : Постоянный
Битрейт : 384 Кбит/сек
Каналы : 6 каналов
Расположение каналов : Front: L C R, Side: L R, LFE
Частота : 48,0 КГц
Битовая глубина : 16 бит
Метод сжатия : С потерями
Размер потока : 251 Мбайт (5%)
Заголовок : Михаил Яроцкий
Язык : Russian
Default : Нет
Forced : Нет
Аудио #3
Идентификатор : 4
Формат : AC-3
Формат/Информация : Audio Coding 3
Расширение режима : CM (complete main)
Параметр Endianness формата : Big
Идентификатор кодека : A_AC3
Продолжительность : 1 ч. 31 м.
Вид битрейта : Постоянный
Битрейт : 192 Кбит/сек
Каналы : 2 канала
Расположение каналов : Front: L R
Частота : 48,0 КГц
Битовая глубина : 16 бит
Метод сжатия : С потерями
Размер потока : 125 Мбайт (2%)
Заголовок : ViruseProject - Александр Харченко
Язык : Russian
Default : Нет
Forced : Нет
Аудио #4
Идентификатор : 5
Формат : AC-3
Формат/Информация : Audio Coding 3
Расширение режима : CM (complete main)
Параметр Endianness формата : Big
Идентификатор кодека : A_AC3
Продолжительность : 1 ч. 31 м.
Вид битрейта : Постоянный
Битрейт : 192 Кбит/сек
Каналы : 2 канала
Расположение каналов : Front: L R
Частота : 44,1 КГц
Битовая глубина : 16 бит
Метод сжатия : С потерями
Размер потока : 125 Мбайт (2%)
Заголовок : datynet
Язык : Russian
Default : Нет
Forced : Нет
Аудио #5
Идентификатор : 6
Формат : AC-3
Формат/Информация : Audio Coding 3
Расширение режима : CM (complete main)
Параметр Endianness формата : Big
Идентификатор кодека : A_AC3
Продолжительность : 1 ч. 31 м.
Вид битрейта : Постоянный
Битрейт : 192 Кбит/сек
Каналы : 2 канала
Расположение каналов : Front: L R
Частота : 48,0 КГц
Битовая глубина : 16 бит
Метод сжатия : С потерями
Размер потока : 125 Мбайт (2%)
Заголовок : qwerty
Язык : Russian
Default : Нет
Forced : Нет
Аудио #6
Идентификатор : 7
Формат : DTS
Формат/Информация : Digital Theater Systems
Режим : 16
Параметр Endianness формата : Big
Идентификатор кодека : A_DTS
Продолжительность : 1 ч. 31 м.
Вид битрейта : Постоянный
Битрейт : 1509 Кбит/сек
Каналы : 6 каналов
Расположение каналов : Front: L C R, Side: L R, LFE
Частота : 48,0 КГц
Битовая глубина : 24 бит
Метод сжатия : С потерями
Размер потока : 985 Мбайт (18%)
Язык : English
Default : Нет
Forced : Нет
Текст #1
Идентификатор : 8
Формат : UTF-8
Идентификатор кодека : S_TEXT/UTF8
Идентификатор кодека/Информация : UTF-8 Plain Text
Заголовок : notabenoid
Язык : Russian
Default : Нет
Forced : Нет
Текст #2
Идентификатор : 9
Формат : UTF-8
Идентификатор кодека : S_TEXT/UTF8
Идентификатор кодека/Информация : UTF-8 Plain Text
Язык : English
Default : Нет
Forced : Нет
Меню
00:00:00.000 : en:00:00:00.000
00:05:23.990 : en:00:05:23.990
00:12:43.888 : en:00:12:43.888
00:15:54.829 : en:00:15:54.829
00:24:05.569 : en:00:24:05.569
00:27:10.420 : en:00:27:10.420
00:29:47.703 : en:00:29:47.703
00:35:27.959 : en:00:35:27.959
00:40:31.346 : en:00:40:31.346
00:44:28.791 : en:00:44:28.791
00:50:40.454 : en:00:50:40.454
00:54:05.325 : en:00:54:05.325
00:59:09.963 : en:00:59:09.963
01:06:54.886 : en:01:06:54.886
01:11:29.285 : en:01:11:29.285
01:17:59.383 : en:01:17:59.383

Знаете ли Вы, что...

* Рэйчел оставляет стакан Дэвиса полупустым, но в следующем кадре, когда Дэвис идет на кухню, стакан наполнен до краев.

Скриншоты




_________________
[Торрент-статистика]
[Профиль]  [ЛС] 
Показать сообщения:    
Ответить на тему

Текущее время: Сегодня 07:01

Часовой пояс: GMT + 4



Вы не можете начинать темы
Вы не можете отвечать на сообщения
Вы не можете редактировать свои сообщения
Вы не можете удалять свои сообщения
Вы не можете голосовать в опросах
Вы не можете прикреплять файлы к сообщениям
Вы не можете скачивать файлы