Джо / Joe (Дэвид Гордон Грин / David Gordon Green) [2013 г., криминал, драма, WEB-DL 720p ] DVO Пиратская студия + Original + Sub

Ответить на тему
 
Автор
Сообщение

awk05 ®

Пол:

Стаж: 8 лет 9 месяцев

Сообщений: 1334

Репутация: 278 [+] [-]

Откуда: Западная Украина Ривне

Пост 13-Май-2014 01:41

[Цитировать] 

-- Джо / Joe-- Год выхода: 2013
Выпущено: США
Жанр: криминал, драма
Продолжительность: 01:57:45
Озвучивание: Профессиональное (двухголосое) [Пиратская студия]
Субтитры: English--Режиссер: Дэвид Гордон Грин / David Gordon Green--В ролях: Николас Кейдж (Joe), Тай Шеридан (Gary), Гари Поултер (Wade a.k.a. G-Daawg), Ронни Джин Блевинс (Willie-Russell), Адриэн Мишлер (Connie), Брайан Мейс (Junior), Адж Уилсон МакФол (Earl), Сью Рок (Merle), Хезер Кафка (Lacy), Бренда Исаак Бут (Mother), ...--О фильме: В прошлом Джо был преступником, но теперь он исправился и старается вести законопослушную жизнь. Неожиданно для самого себя Джо становится наставником для 15-летнего подростка Гэри, живущего вместе со своим отцом-алкоголиком на улице. Подружившись, Джо и Гэри вместе пытаются сделать всё, чтоб изменить свою судьбу к лучшему, однако в их захолустном городке вырваться из оков бедности очень сложно.--Качество видео:WEB-DL 720p
Формат видео: MKV
Видео кодек: AVC (Main@L3.1 )
Аудио кодек: AC3
Видео: 1280x540 (2,40:1), 23,976 кадра/сек, 3 705 Кбит/сек, (0.224 бит/пиксели*кадры)
Аудио 1: AC-3, 48.0 KHz, 6 ch, 384 Kbps, CBR [RUS]
Аудио 2: AC-3, 48.0 KHz, 6 ch, 384 Kbps, CBR [ENG]-- --

Знаете ли Вы, что...

* Гари Поултер, который играет роль Уэйда, на самом деле был бездомным. Роль в фильме ему предложил Дэвид Гордон Грин, который часто в своих фильмах практикует привлечение местного населения. Поултер скончался на улицах Остина через пару месяцев после завершения съемок.

Скриншоты



Тех. данные (MI)

Общее
Joe.2013.WED-DL.720p.CINEMANIA.mkv
Формат : Matroska
Версия формата : Version 4 / Version 2
Размер файла : 3,75 Гбайт
Продолжительность : 1 ч. 57 м.
Общий поток : 4564 Кбит/сек
Название фильма : Release Group CINEMANIA
Дата кодирования : UTC 2014-04-28 17:56:40
Программа кодирования : mkvmerge v6.9.1 ('Blue Panther') 64bit built on Apr 18 2014 18:23:38
Библиотека кодирования : libebml v1.3.0 + libmatroska v1.4.1
Видео
Идентификатор : 1
Формат : AVC
Формат/Информация : Advanced Video Codec
Профиль формата : Main@L3.1
Параметр CABAC формата : Нет
Параметр ReFrames формата : 2 кадра
Идентификатор кодека : V_MPEG4/ISO/AVC
Продолжительность : 1 ч. 57 м.
Битрейт : 3705 Кбит/сек
Ширина : 1280 пикселей
Высота : 540 пикселей
Соотношение сторон : 2,40:1
Режим частоты кадров : Постоянный
Частота кадров : 23,976 кадра/сек
Цветовое пространство : YUV
Субдискретизация насыщенности : 4:2:0
Битовая глубина : 8 бит
Тип развёртки : Прогрессивная
Бит/(Пиксели*Кадры) : 0.224
Размер потока : 3,05 Гбайт (81%)
Заголовок : Release Group CINEMANIA
Язык : English
Default : Да
Forced : Нет
Основные цвета : BT.709
Характеристики трансфера : BT.709
Коэффициенты матрицы : BT.709
Аудио #1
Идентификатор : 2
Формат : AC-3
Формат/Информация : Audio Coding 3
Расширение режима : CM (complete main)
Параметр Endianness формата : Big
Идентификатор кодека : A_AC3
Продолжительность : 1 ч. 57 м.
Вид битрейта : Постоянный
Битрейт : 384 Кбит/сек
Каналы : 6 каналов
Расположение каналов : Front: L C R, Side: L R, LFE
Частота : 48,0 КГц
Битовая глубина : 16 бит
Метод сжатия : С потерями
Размер потока : 323 Мбайт (8%)
Заголовок : Пиратская Студия
Язык : Russian
Default : Да
Forced : Да
Аудио #2
Идентификатор : 3
Формат : AC-3
Формат/Информация : Audio Coding 3
Расширение режима : CM (complete main)
Параметр Endianness формата : Big
Идентификатор кодека : A_AC3
Продолжительность : 1 ч. 57 м.
Вид битрейта : Постоянный
Битрейт : 384 Кбит/сек
Каналы : 6 каналов
Расположение каналов : Front: L C R, Side: L R, LFE
Частота : 48,0 КГц
Битовая глубина : 16 бит
Метод сжатия : С потерями
Размер потока : 323 Мбайт (8%)
Язык : English
Default : Нет
Forced : Нет
Текст
Идентификатор : 4
Формат : UTF-8
Идентификатор кодека : S_TEXT/UTF8
Идентификатор кодека/Информация : UTF-8 Plain Text
Язык : English
Default : Нет
Forced : Нет
Меню
00:00:00.000 : en:Chapter 1
00:09:47.000 : en:Chapter 2
00:19:50.000 : en:Chapter 3
00:30:29.000 : en:Chapter 4
00:42:14.000 : en:Chapter 5
00:53:26.000 : en:Chapter 6
01:05:06.000 : en:Chapter 7
01:13:27.000 : en:Chapter 8
01:23:26.000 : en:Chapter 9
01:32:53.000 : en:Chapter 10
01:41:53.000 : en:Chapter 11
01:51:38.000 : en:Chapter 12

_________________
[Торрент-статистика]
[Профиль]  [ЛС] 
Показать сообщения:    
Ответить на тему

Текущее время: Сегодня 10:46

Часовой пояс: GMT + 4



Вы не можете начинать темы
Вы не можете отвечать на сообщения
Вы не можете редактировать свои сообщения
Вы не можете удалять свои сообщения
Вы не можете голосовать в опросах
Вы не можете прикреплять файлы к сообщениям
Вы не можете скачивать файлы