Безопасность не гарантируется / Safety Not Guaranteed (Колин Треворроу / Colin Trevorrow) [2012 г., фантастика, драма, мелодрама, комедия, BDRip 720p]

Ответить на тему
 
Автор
Сообщение

awk05 ®

Пол:

Стаж: 8 лет 9 месяцев

Сообщений: 1334

Репутация: 278 [+] [-]

Откуда: Западная Украина Ривне

Пост 13-Май-2014 00:57

[Цитировать] 

-- Безопасность не гарантируется / Safety Not Guaranteed-- Год выхода: 2012
Выпущено: США
Жанр: фантастика, драма, мелодрама, комедия
Продолжительность: 01:25:47
Озвучивание: Профессиональное (многоголосое) [Лицензия]
Субтитры: Russian [ak79], English--Режиссер: Колин Треворроу--В ролях: Обри Пласа (Darius), Марк Дюпласс (Kenneth), Джейк Джонсон (Jeff), Каран Сони (Arnau), Дженика Бергер (Liz), Бейзил Харрис (Restaurant Manager), Мэри Линн Райскаб (Bridget), Дэвид Шульц (Coworker), Джефф Гарлин (Mr. Britt), ...--О фильме: Журналисты денно и нощно ищут себе сенсацию: чтобы газеты читали, а телепередачи смотрели, нужно находить увлекательные сюжеты и рассказывать о них зрителям и читателям, и тогда все будет идти как по маслу. Именно поэтому однажды во время мозгового штурма один амбициозный журналист предлагает написать статью о странном парне, давшем в газету попахивающее шизофренией объявление.
Если верить автору объявления, однажды он смог побывать в прошлом и теперь ищет компанию для повторного путешествия. Чтобы путешествие удалось, желательно взять с собой оружие и подготовиться. После возвращения в свое время труды помощников будут оплачены, только вот безопасность им никто не гарантирует: в конце концов, кто знает, что там, в этом прошлом, случится? Взяв с собой двоих стажеров, журналист отправился на встречу с автором объявления, даже не подозревая, что результатом их знакомства станет не насмешливая статья, а совершенно сумасшедший жизненный опыт.--Качество видео:BDRip 720p
Формат видео: MKV
Видео кодек: AVC (High@L4.1)
Аудио кодек: AC3
Видео: AVC, 1280x544 (2.35:1), 23.976 fps, 5780 Kbps (0.333 bit/pixel)
Аудио 1: AC-3, 48.0 KHz, 6 ch, 448 Kbps, CBR [RUS]
Аудио 2: AC-3, 48.0 KHz, 6 ch, 640 Kbps, CBR [ENG]-- --

Знаете ли Вы, что...

* Некоторые сцены были сымпровизированы. Например, когда Джефф советует Арнау поднять воротник и носить солнцезащитные очки, так как они делают его похожим на пилота реактивных самолетов.
* Дариус дали мужское афроамериканское имя как связь с историей о ее семействе, не вошедшей в финальный вариант. Во время сцены ужина с ее отцом был еще и третий актер — молодой чернокожий мужчина, которого пришлось удалить во время постпродакшна, так как без рассказанной предыстории его присутствие в этой сцене не имело смысла.
* Оригинальное объявление, на котором основан фильм, впервые появилось в журнале Backwoods Home в 1997 году. Оно было написано в последнюю минуту перед выпуском сотрудником журнала Джоном Силвейрой, который указан в титрах фильма как консультант по путешествиям во времени, а также сыграл эпизодическую роль. Позже объявление появилось в передаче «Ночное шоу с Джеем Лено» (1992) в рубрике «Заголовки» и в итоге стало интернет-мемом, прежде чем превратиться в сценарий.
* Роль Дариус была написана специально для Обри Плазы, потому что сценарист Дерек Коннолли хотел работать именно с ней. Также режиссер Колин Треворроу задумывал персонажа по имени Джефф, представляя в этой роли Джэйка Джонсона.
* Когда Кеннет и Дариус находятся в лагере, а Дариус спрашивает, какой музыкальный инструмент есть у Кеннета, он отвечает, что цитра. Инструмент, который они используют, — это цимбалы. Хотя они относятся к одной категории, эти инструменты разные. Называть цимбалы цитрой — все равно что называть скрипку виолончелью.
* Когда Кеннет подбирает Дариус на пляже и делает широкий круг на фургоне по песку, заметны следы от шин, которые, по-видимому, остались после их последней репетиции этой сцены.
* Когда Дариус сдает задним ходом, чтобы подобрать Кеннета во время ограбления, очевидно, что использованы кадры движущегося вперед фургона, но прокрученные в обратном направлении. Это заметно по тому факту, что дым идет в выхлопную трубу, а не из нее.

Скриншоты


Тех. данные (MI)

Общее
Safety.Not.Guaranteed.2012.Blu.Ray.720p.CINEMANIA.mkv
Формат : Matroska
Версия формата : Version 4 / Version 2
Размер файла : 4,11 Гбайт
Продолжительность : 1 ч. 25 м.
Общий поток : 6867 Кбит/сек
Название фильма : Release Group CINEMANIA
Дата кодирования : UTC 2014-05-06 18:31:44
Программа кодирования : mkvmerge v6.9.1 ('Blue Panther') 64bit built on Apr 18 2014 18:23:38
Библиотека кодирования : libebml v1.3.0 + libmatroska v1.4.1
Видео
Идентификатор : 1
Формат : AVC
Формат/Информация : Advanced Video Codec
Профиль формата : High@L4.1
Параметр CABAC формата : Да
Параметр ReFrames формата : 12 кадров
Идентификатор кодека : V_MPEG4/ISO/AVC
Продолжительность : 1 ч. 25 м.
Битрейт : 5780 Кбит/сек
Ширина : 1280 пикселей
Высота : 544 пикселя
Соотношение сторон : 2,35:1
Режим частоты кадров : Постоянный
Частота кадров : 23,976 кадра/сек
Цветовое пространство : YUV
Субдискретизация насыщенности : 4:2:0
Битовая глубина : 8 бит
Тип развёртки : Прогрессивная
Бит/(Пиксели*Кадры) : 0.346
Размер потока : 3,38 Гбайт (82%)
Заголовок : Release Group CINEMANIA
Библиотека кодирования : x264 core 128 r2216 198a7ea
Настройки программы : cabac=1 / ref=12 / deblock=1:-3:-3 / analyse=0x3:0x113 / me=tesa / subme=11 / psy=1 / psy_rd=0.97:0.00 / mixed_ref=1 / me_range=32 / chroma_me=1 / trellis=2 / 8x8dct=1 / cqm=0 / deadzone=21,11 / fast_pskip=0 / chroma_qp_offset=-2 / threads=12 / lookahead_threads=2 / sliced_threads=0 / nr=0 / decimate=1 / interlaced=0 / bluray_compat=0 / constrained_intra=0 / bframes=6 / b_pyramid=2 / b_adapt=2 / b_bias=0 / direct=3 / weightb=1 / open_gop=0 / weightp=2 / keyint=240 / keyint_min=23 / scenecut=40 / intra_refresh=0 / rc_lookahead=40 / rc=2pass / mbtree=1 / bitrate=5780 / ratetol=1.0 / qcomp=0.70 / qpmin=0 / qpmax=69 / qpstep=4 / cplxblur=20.0 / qblur=0.5 / ip_ratio=1.40 / aq=1:0.90
Язык : English
Default : Да
Forced : Да
Аудио #1
Идентификатор : 2
Формат : AC-3
Формат/Информация : Audio Coding 3
Расширение режима : CM (complete main)
Параметр Endianness формата : Big
Идентификатор кодека : A_AC3
Продолжительность : 1 ч. 25 м.
Вид битрейта : Постоянный
Битрейт : 448 Кбит/сек
Каналы : 6 каналов
Расположение каналов : Front: L C R, Side: L R, LFE
Частота : 48,0 КГц
Битовая глубина : 16 бит
Метод сжатия : С потерями
Размер потока : 275 Мбайт (7%)
Заголовок : Лицензия
Язык : Russian
Default : Да
Forced : Да
Аудио #2
Идентификатор : 3
Формат : AC-3
Формат/Информация : Audio Coding 3
Расширение режима : CM (complete main)
Параметр Endianness формата : Big
Идентификатор кодека : A_AC3
Продолжительность : 1 ч. 25 м.
Вид битрейта : Постоянный
Битрейт : 640 Кбит/сек
Каналы : 6 каналов
Расположение каналов : Front: L C R, Side: L R, LFE
Частота : 48,0 КГц
Битовая глубина : 16 бит
Метод сжатия : С потерями
Размер потока : 393 Мбайт (9%)
Язык : English
Default : Нет
Forced : Нет
Текст #1
Идентификатор : 4
Формат : UTF-8
Идентификатор кодека : S_TEXT/UTF8
Идентификатор кодека/Информация : UTF-8 Plain Text
Заголовок : ak79
Язык : Russian
Default : Нет
Forced : Нет
Текст #2
Идентификатор : 5
Формат : UTF-8
Идентификатор кодека : S_TEXT/UTF8
Идентификатор кодека/Информация : UTF-8 Plain Text
Язык : English
Default : Нет
Forced : Нет
Текст #3
Идентификатор : 6
Формат : UTF-8
Идентификатор кодека : S_TEXT/UTF8
Идентификатор кодека/Информация : UTF-8 Plain Text
Заголовок : SDH
Язык : English
Default : Нет
Forced : Нет
Меню
00:00:00.000 : en:Chapter 01
00:05:57.190 : en:Chapter 02
00:12:43.679 : en:Chapter 03
00:18:08.378 : en:Chapter 04
00:23:40.001 : en:Chapter 05
00:26:50.191 : en:Chapter 06
00:31:09.409 : en:Chapter 07
00:34:22.769 : en:Chapter 08
00:38:21.549 : en:Chapter 09
00:46:51.266 : en:Chapter 10
00:51:50.023 : en:Chapter 11
00:57:20.395 : en:Chapter 12
01:05:30.676 : en:Chapter 13
01:09:57.610 : en:Chapter 14
01:15:03.332 : en:Chapter 15
01:17:46.828 : en:Chapter 16

_________________
[Торрент-статистика]
[Профиль]  [ЛС] 
Показать сообщения:    
Ответить на тему

Текущее время: Сегодня 12:33

Часовой пояс: GMT + 4



Вы не можете начинать темы
Вы не можете отвечать на сообщения
Вы не можете редактировать свои сообщения
Вы не можете удалять свои сообщения
Вы не можете голосовать в опросах
Вы не можете прикреплять файлы к сообщениям
Вы не можете скачивать файлы