Медсестра / Nurse (Дуглас Арниокоски / Douglas Aarniokoski) [2013 г., триллер, BDRip 720p] DUB [Чистый Звук], MVO [BaibaKo], AVO [Акалит], MVO [den904] & [DeadSno] и Васька Куролесов +Sub

Ответить на тему
 
Автор
Сообщение

awk05 ®

Пол:

Стаж: 8 лет 10 месяцев

Сообщений: 1334

Репутация: 278 [+] [-]

Откуда: Западная Украина Ривне

Пост 13-Май-2014 00:14

[Цитировать] 

--Медсестра / Nurse
«Ваша боль – её наслаждение»
-- Год выпуска: 2013
Выпущено: США
Жанр: триллер
Продолжительность: 01:23:54
Озвучивание: Дублированное [Чистый Звук], Профессиональное (многоголосое) [BaibaKo], Любительское (одноголосое) [Акалит], Любительское (многоголосое) [den904] & [DeadSno] и Васька Куролесов
Субтитры: English--Режиссер: Дуглас Арниокоски / Douglas Aarniokoski--В ролях: Пас де ла Уэрта (Abby Russell), Катрина Боуден (Danni), Корбин Блю (Dr. Morris), Борис Коджо (Detective John Rogan), Адам Хершман (Jared), Найси Нэш (Regina), Кэтлин Тёрнер (Head Nurse Betty Watson), Майкл Эклунд (Richie), Мартин Донован (Larry Cook), Майкл Терриоль (Anatomy Professor), ...--О фильме: Эбби Расселл – соблазнительная молодая женщина, которая работает старшей медсестрой и пользуется уважением окружающих. По ночам она, впрочем, ведет совсем другую жизнь: Эбби ищет в клубах несвободных мужчин и соблазняет их, а когда они поддаются искушению – убивает, дабы очистить мир от очередного нечестивца и проучить разом всех мужчин, обманывающих своих девушек.
Две жизни, профессиональная и личная, пересекаются, когда в больницу, где работает Эбби, приходит новая медсестра – молодая девушка по имени Дэни, которая начинает подозревать, что у симпатичной и уважаемой медсестры Расселл не все в порядке с головой. После весьма близкого знакомства, которое состоялось в первый же рабочий день, Дэни на собственном опыте испытала, на что способна ее новая знакомая: она поняла, что Эбби причастна к смерти ее отчима и по совместительству своего психиатра. Какие претензии к нему были у Эбби, что она сделает дальше и чего теперь бояться Дэни, пока неизвестно.--Качество видео:BDRip 720p
Формат видео: MKV
Видео кодек: AVC (High@L4.1)
Аудио кодек: AC3
Видео: 1280x532 (16:9), 23,976 кадра/сек, 7200 Кбит/сек, (0.175 бит/пиксели*кадры)
Аудио 1: AC3, 2 канала Front: L R, 48,0 КГц, 192 Кбит/сек, 16 бит CBR[RUS]
Аудио 1: AC3, 6 каналов Front: L C R, Side: L R, LFE, 48,0 КГц, 384 Кбит/сек, 16 бит CBR[RUS]
Аудио 1: AC3, 6 каналов Front: L C R, Side: L R, LFE, 48,0 КГц, 384 Кбит/сек, 16 бит CBR[RUS]
Аудио 1: AC3, 2 канала Front: L R, 48,0 КГц, 192 Кбит/сек, 16 бит CBR[RUS]
Аудио 2: DTS, 6 каналов Front: L C R, Side: L R, LFE, 48,0 КГц, 1510 Кбит/сек, 24 бит CBR[ENG]-- --

Скриншоты

Тех. данные (MI)

Общее
Nurse.2013.Blu.Ray.720p.CINEMANIA.mkv
Формат : Matroska
Версия формата : Version 4 / Version 2
Размер файла : 5,77 Гбайт
Продолжительность : 1 ч. 23 м.
Общий поток : 9850 Кбит/сек
Название фильма : Release Group CINEMANIA
Дата кодирования : UTC 2014-05-08 11:11:14
Программа кодирования : mkvmerge v6.9.1 ('Blue Panther') 64bit built on Apr 18 2014 18:23:38
Библиотека кодирования : libebml v1.3.0 + libmatroska v1.4.1
Видео
Идентификатор : 1
Формат : AVC
Формат/Информация : Advanced Video Codec
Профиль формата : High@L4.1
Параметр CABAC формата : Да
Параметр ReFrames формата : 12 кадров
Идентификатор кодека : V_MPEG4/ISO/AVC
Продолжительность : 1 ч. 23 м.
Битрейт : 7200 Кбит/сек
Ширина : 1280 пикселей
Высота : 532 пикселя
Соотношение сторон : 2,40:1
Режим частоты кадров : Постоянный
Частота кадров : 23,976 кадра/сек
Цветовое пространство : YUV
Субдискретизация насыщенности : 4:2:0
Битовая глубина : 8 бит
Тип развёртки : Прогрессивная
Бит/(Пиксели*Кадры) : 0.441
Размер потока : 4,10 Гбайт (71%)
Заголовок : Release Group CINEMANIA
Библиотека кодирования : x264 core 142 r2409+42 04be48a tMod [8-bit@4:2:0 X86_64]
Настройки программы : cabac=1 / ref=12 / deblock=1:-3:-2 / analyse=0x3:0x113 / me=umh / subme=11 / psy=1 / fade_compensate=0.00 / psy_rd=1.10:0.00 / mixed_ref=1 / me_range=32 / chroma_me=1 / trellis=2 / 8x8dct=1 / cqm=0 / deadzone=21,11 / fast_pskip=0 / chroma_qp_offset=-2 / threads=18 / lookahead_threads=3 / sliced_threads=0 / nr=0 / decimate=0 / interlaced=0 / bluray_compat=0 / constrained_intra=0 / fgo=0 / bframes=8 / b_pyramid=2 / b_adapt=2 / b_bias=0 / direct=3 / weightb=1 / open_gop=0 / weightp=2 / keyint=240 / keyint_min=24 / scenecut=40 / intra_refresh=0 / rc=2pass / mbtree=0 / bitrate=7200 / ratetol=1.0 / qcomp=0.70 / qpmin=0:0:0 / qpmax=69:69:69 / qpstep=4 / cplxblur=20.0 / qblur=0.5 / ip_ratio=1.20 / pb_ratio=1.20 / aq=4:0.80 / aq-sensitivity=10.00 / aq-factor=1.00:1.00:1.00 / aq2=0 / aq3=0
Язык : English
Default : Да
Forced : Нет
Аудио #1
Идентификатор : 2
Формат : AC-3
Формат/Информация : Audio Coding 3
Расширение режима : CM (complete main)
Параметр Endianness формата : Big
Идентификатор кодека : A_AC3
Продолжительность : 1 ч. 23 м.
Вид битрейта : Постоянный
Битрейт : 192 Кбит/сек
Каналы : 2 канала
Расположение каналов : Front: L R
Частота : 48,0 КГц
Битовая глубина : 16 бит
Метод сжатия : С потерями
Размер потока : 115 Мбайт (2%)
Заголовок : Дубляж (Чистый Звук)
Язык : Russian
Default : Да
Forced : Да
Аудио #2
Идентификатор : 3
Формат : AC-3
Формат/Информация : Audio Coding 3
Расширение режима : CM (complete main)
Параметр Endianness формата : Big
Идентификатор кодека : A_AC3
Продолжительность : 1 ч. 23 м.
Вид битрейта : Постоянный
Битрейт : 384 Кбит/сек
Каналы : 6 каналов
Расположение каналов : Front: L C R, Side: L R, LFE
Частота : 48,0 КГц
Битовая глубина : 16 бит
Метод сжатия : С потерями
Размер потока : 230 Мбайт (4%)
Заголовок : BaibaKo
Язык : Russian
Default : Нет
Forced : Нет
Аудио #3
Идентификатор : 4
Формат : AC-3
Формат/Информация : Audio Coding 3
Расширение режима : CM (complete main)
Параметр Endianness формата : Big
Идентификатор кодека : A_AC3
Продолжительность : 1 ч. 23 м.
Вид битрейта : Постоянный
Битрейт : 384 Кбит/сек
Каналы : 6 каналов
Расположение каналов : Front: L C R, Side: L R, LFE
Частота : 48,0 КГц
Битовая глубина : 16 бит
Метод сжатия : С потерями
Размер потока : 230 Мбайт (4%)
Заголовок : Акалит
Язык : Russian
Default : Нет
Forced : Нет
Аудио #4
Идентификатор : 5
Формат : AC-3
Формат/Информация : Audio Coding 3
Расширение режима : CM (complete main)
Параметр Endianness формата : Big
Идентификатор кодека : A_AC3
Продолжительность : 1 ч. 23 м.
Вид битрейта : Постоянный
Битрейт : 192 Кбит/сек
Каналы : 2 канала
Расположение каналов : Front: L R
Частота : 48,0 КГц
Битовая глубина : 16 бит
Метод сжатия : С потерями
Размер потока : 115 Мбайт (2%)
Заголовок : Влад , Снежинка и Куролес
Язык : Russian
Default : Нет
Forced : Нет
Аудио #5
Идентификатор : 6
Формат : DTS
Формат/Информация : Digital Theater Systems
Режим : 16
Параметр Endianness формата : Big
Идентификатор кодека : A_DTS
Продолжительность : 1 ч. 23 м.
Вид битрейта : Постоянный
Битрейт : 1509 Кбит/сек
Каналы : 6 каналов
Расположение каналов : Front: L C R, Side: L R, LFE
Частота : 48,0 КГц
Битовая глубина : 24 бит
Метод сжатия : С потерями
Размер потока : 906 Мбайт (15%)
Язык : English
Default : Нет
Forced : Нет
Текст
Идентификатор : 7
Формат : UTF-8
Идентификатор кодека : S_TEXT/UTF8
Идентификатор кодека/Информация : UTF-8 Plain Text
Язык : English
Default : Нет
Forced : Нет

_________________
[Торрент-статистика]
[Профиль]  [ЛС] 
Показать сообщения:    
Ответить на тему

Текущее время: Сегодня 06:12

Часовой пояс: GMT + 4



Вы не можете начинать темы
Вы не можете отвечать на сообщения
Вы не можете редактировать свои сообщения
Вы не можете удалять свои сообщения
Вы не можете голосовать в опросах
Вы не можете прикреплять файлы к сообщениям
Вы не можете скачивать файлы