Сквозь снег / Snowpiercer ( Пон Чжун Хо Bong Joon Ho) [2013 г., Фантастика, Боевик, Драма, BDRip 720р] DVO (den904 & DeadSno) +Sab

Ответить на тему
 
Автор
Сообщение

awk05 ®

Пол:

Стаж: 8 лет 9 месяцев

Сообщений: 1334

Репутация: 278 [+] [-]

Откуда: Западная Украина Ривне

Пост 12-Май-2014 23:32

[Цитировать] 

--Сквозь снег / Snowpiercer
«AD 2031: the passengers in the train are the only survivors on Earth»
Год выпуска: 2013
Производство: Южная Корея, США, Франция, Чехия
Жанр: Фантастика, Боевик, Драма
Продолжительность: 02:05:53
Перевод: Двухголосый закадровый, любительский (den904 & DeadSno)
Субтитры: Вшитые отключаемые
Язык субтитров: Русский, Английский--Режиссер: Пон Чжун Хо Bong Joon Ho--Актеры: Крис Эванс (Curtis), Сон Кан Хо (Namgoong Minsu),Тильда Суинтон (Mason),Джейми Белл (Edgar),Октавия Спенсер (Tanya),Юэн Бремнер (Andrew),Элисон Пилл (Teacher),Ко А Сон (Yona),Эд Харрис (Wilford),Джон Хёрт (Gilliam), ...--Описание фильма: Земля. Недалекое будущее. Семнадцать лет назад на планете произошла техногенная катастрофа. Там, где раньше росли леса и цвели сады, теперь лежат снег и лед. Жизнь сохранилась лишь в гигантском поезде, без остановки мчащемся по трансевразийской магистрали. В первых вагонах состава живет правящая элита, во множестве последних — простые люди. Жизнь в хвосте поезда напоминает концлагерь — болезни, нищета, беспредел надсмотрщиков. Но именно здесь из среды униженных и оскорбленных восстает человек, способный восстановить справедливость. Однако у каждой благородной идеи есть своя темная сторона, и любая революция пожирает своих детей.--Качество видео:BDRip 720p
Формат видео: MKV
Видео кодек: AVC (High@L4.1)
Аудио кодек: AC3,DTS
Видео: 1280x692 (1,85:1), 23,976 кадра/сек, 5800 Кбит/сек, (0.273 бит/пиксели*кадры)
Аудио 1: AC3, 6 каналов Front: L C R, Side: L R, LFE, 48,0 КГц, 640 Кбит/сек, 16 бит CBR[RUS]
Аудио 2: DTS, 6 каналов Front: L C R, Side: L R, LFE, 48,0 КГц, 640 Кбит/сек, 24 бит CBR[ENG]-- --

Тех. данные (MI)

Формат : Matroska
Версия формата : Version 4 / Version 2
Размер файла : 6,99 Гбайт
Продолжительность : 2 ч. 5 м.
Общий поток : 7948 Кбит/сек
Название фильма : Snowpiercer
Дата кодирования : UTC 2014-03-27 02:56:47
Программа кодирования : mkvmerge v6.8.0 ('Theme for Great Cities') 64bit built on Mar 2 2014 21:34:26
Библиотека кодирования : libebml v1.3.0 + libmatroska v1.4.1
Видео
Идентификатор : 1
Формат : AVC
Формат/Информация : Advanced Video Codec
Профиль формата : High@L4.1
Параметр CABAC формата : Да
Параметр ReFrames формата : 9 кадров
Идентификатор кодека : V_MPEG4/ISO/AVC
Продолжительность : 2 ч. 5 м.
Битрейт : 5800 Кбит/сек
Ширина : 1280 пикселей
Высота : 692 пикселя
Соотношение сторон : 1,85:1
Режим частоты кадров : Постоянный
Частота кадров : 23,976 кадра/сек
Цветовое пространство : YUV
Субдискретизация насыщенности : 4:2:0
Битовая глубина : 8 бит
Тип развёртки : Прогрессивная
Бит/(Пиксели*Кадры) : 0.273
Размер потока : 4,96 Гбайт (71%)
Библиотека кодирования : x264 core 142 r2409+42 04be48a tMod [8-bit@4:2:0 X86_64]
Настройки программы : cabac=1 / ref=9 / deblock=1:-3:-2 / analyse=0x3:0x113 / me=umh / subme=11 / psy=1 / fade_compensate=0.00 / psy_rd=1.00:0.00 / mixed_ref=1 / me_range=48 / chroma_me=1 / trellis=2 / 8x8dct=1 / cqm=0 / deadzone=21,11 / fast_pskip=0 / chroma_qp_offset=-2 / threads=18 / lookahead_threads=3 / sliced_threads=0 / nr=0 / decimate=0 / interlaced=0 / bluray_compat=0 / constrained_intra=0 / fgo=0 / bframes=8 / b_pyramid=2 / b_adapt=2 / b_bias=0 / direct=3 / weightb=1 / open_gop=0 / weightp=2 / keyint=240 / keyint_min=24 / scenecut=40 / intra_refresh=0 / rc_lookahead=240 / rc=2pass / mbtree=1 / bitrate=5800 / ratetol=1.0 / qcomp=0.80 / qpmin=0:0:0 / qpmax=69:69:69 / qpstep=4 / cplxblur=20.0 / qblur=0.5 / ip_ratio=1.20 / aq=4:0.85 / aq-sensitivity=10.00 / aq-factor=1.00:1.00:1.00 / aq2=0 / aq3=0
Язык : English
Default : Да
Forced : Нет
Аудио #1
Идентификатор : 2
Формат : AC-3
Формат/Информация : Audio Coding 3
Расширение режима : CM (complete main)
Параметр Endianness формата : Big
Идентификатор кодека : A_AC3
Продолжительность : 2 ч. 5 м.
Вид битрейта : Постоянный
Битрейт : 640 Кбит/сек
Каналы : 6 каналов
Расположение каналов : Front: L C R, Side: L R, LFE
Частота : 48,0 КГц
Битовая глубина : 16 бит
Метод сжатия : С потерями
Размер потока : 576 Мбайт (8%)
Заголовок : den904 & DeadSno
Язык : Russian
Default : Да
Forced : Нет
Аудио #2
Идентификатор : 3
Формат : DTS
Формат/Информация : Digital Theater Systems
Режим : 16
Параметр Endianness формата : Big
Идентификатор кодека : A_DTS
Продолжительность : 2 ч. 5 м.
Вид битрейта : Постоянный
Битрейт : 1509 Кбит/сек
Каналы : 6 каналов
Расположение каналов : Front: L C R, Side: L R, LFE
Частота : 48,0 КГц
Битовая глубина : 24 бит
Метод сжатия : С потерями
Размер потока : 1,33 Гбайт (19%)
Язык : English
Default : Нет
Forced : Нет
Текст #1
Идентификатор : 4
Формат : UTF-8
Идентификатор кодека : S_TEXT/UTF8
Идентификатор кодека/Информация : UTF-8 Plain Text
Язык : Russian
Default : Нет
Forced : Нет
Текст #2
Идентификатор : 5
Формат : UTF-8
Идентификатор кодека : S_TEXT/UTF8
Идентификатор кодека/Информация : UTF-8 Plain Text
Язык : English
Default : Нет
Forced : Нет

Знаете ли Вы, что...

* Ребел Уилсон должна была сыграть Клод, но не смогла из-за занятости в других проектах.
* Все горящие факелы в фильме были настоящими.
* Первый англоязычный фильм режиссера Пона Чжуна Хо.
* В основу фильма положен графический роман Жака Лоба «Le Transperceneige».
* Фильм был полностью отснят в студии Barrandov в Праге, в Чехии.
* Для фильма были построены 500 метров декораций поезда.
* Тильда Суинтон кроме основной, сыграла роль в эпизоде с «танцевальным отсеком» — она отдает бутылку Юне, когда главные герои идут сквозь толпу.
* Мэйсон изначально была мужским персонажем, но ей сменили пол, после того как на роль утвердили Тильду Суинтон.
* Угольные рисунки в фильме были нарисованы Жан-Марком Рошеттом, художником оригинальной графической новеллы ‘Le Transperceneige’, по которой поставлен фильм.
* Джейк Джилленхол и Дастин Хоффман могли сыграть в фильме Кертиса и Уилфорда соответсвенно, но не смогли из-за занятости на других проектах.
* Эд Харрис – последний утвержденный актер в фильме, по предложению самого режиссера Пон Чжун Хо.
* Тильда Суинтон хотела чтобы в фильме у нее была сцена один на один с актером Сон Кан Хо, но этого не произошло.
* Крис Эванс лично связывался с режиссером Пон Чжун Хо по поводу роли в фильме.
* Тильда Суинтон подумывала об уходе из актерской профессии, но передумала после съемок в данном фильме.
* Тильда Суинтон говорит в фильме с йоркширским акцентом, как у Маргарет Тэтчер.
* Персонаж “Эдгар” назван в честь режиссера Эдгара Райта.
* Имя персонажа «Йона» взято из Библии.
* Криса Эванса попросили остаться одному в декорациях поезда на четыре часа, перед съемками монолога, чтобы актер вошел в правильное эмоциональное настроение для сцены.
* Джейми Белл сказал что, Крис Эванс часами репетировал свой монолог в комнате отеля перед зеркалом.
* Джулиан Спенсер, постановщик драк, ориентировался на драку в бане из фильма «Порок на экспорт» (2007).
* Эмма Ливи, актриса, которая сыграла Клод, не профессиональная актриса. Она студентка школы искусств и не знала, в каком точно фильме она снимается, и была шокирована, увидев на площадке Криса Эванса.
* Протеиновые батончики из фильма, на самом деле смесь из морских водорослей и сахара. Джейми Беллу их потребление давалось труднее всего на съемках.
* Крис Эванс волновался на счет того, как глупо будет выглядеть момент, где он поскальзывается на мертвой рыбе, во время сцены драки. Пон Чжун Хо пришлось объяснять ему “красоту ошибки”.
* Эд Харрис был недоволен своими репликами в первый день съемок и был сильно разозлен. Пон Чжун Хо сказал, что не мог прекратить смеяться над истерикой Харриса.
* Пон Чжун Хо хотел построить зоопарк в поезде, но бюджет не позволил.
* Пон Чжун Хо притворился, что не говорит по-английски, когда продюсеры просили его вырезать сцены.
* Пон Чжун Хо хотел поместить намного больше детей под поезд в кульминации фильма, но этого не позволил бюджет.
* Внимание! Список ошибок в фильме может содержать спойлеры. Будьте осторожны.
Во время объяснения детям принципа устройства поезда, говорится, что поезд проезжает за год 438 тыс. км, таким образом, его средняя скорость составляет 50 км/ч. Однако на всех визуальных планах он движется с гораздо большей скоростью.

Скриншоты




_________________
[Торрент-статистика]
[Профиль]  [ЛС] 
Показать сообщения:    
Ответить на тему

Текущее время: Сегодня 10:44

Часовой пояс: GMT + 4



Вы не можете начинать темы
Вы не можете отвечать на сообщения
Вы не можете редактировать свои сообщения
Вы не можете удалять свои сообщения
Вы не можете голосовать в опросах
Вы не можете прикреплять файлы к сообщениям
Вы не можете скачивать файлы