Враг / Enemy (Дени Вильнёв / Denis Villeneuve) [2013 г., Триллер, Детектив, WEB-DL.720p] DVO qwerty & R.A.I.M. + AVO ХихиДок + Sub + Original

Ответить на тему
 
Автор
Сообщение

awk05 ®

Пол:

Стаж: 4 года 5 месяцев

Сообщений: 1352

Репутация: 275 [+] [-]

Откуда: Западная Украина Ривне

Пост 12-Май-2014 22:48

[Цитировать] 

--Враг / Enemy«Опасайся встречи с самим собой...»-- Год выпуска: 2013 г.
Страна: Канада, Испания
Жанр: Триллер, Детектив
Продолжительность: 01:30:50
Перевод: Любительское (двухголосое) [qwerty & R.A.I.M.] / Любительское (одноголосое) [ХихиДок]
Субтитры: Russian [notabenoid], English--Режиссер: Дени Вильнёв / Denis Villeneuve--В ролях: Джейк Джилленхол (Adam + Anthony), Мелани Лоран (Mary), Сара Гадон (Helen), Изабелла Росселлини (Mother), Джошуа Пиис (Teacher at School), Тим Пост (Anthony's Concierge), Кедар Браун (Security Guard), Дэррил Динн (Video Store Clerk), Киран Фризен (Sad, Broken Woman), Стивен Р. Харт (Bouncer), ...--Описание: Чтобы хоть как-то развеять свою депрессию, разведенный учитель истории Тертулиано Максимо Афонсо берет в прокате видеокассету с комедией «Упорный охотник подстрелит дичь». Фильм никак не впечатляет Тертулиано, и он ложится спать. Ночью его будят звуки из гостиной — оказывается, он забыл выключить пленку и видеомагнитофон заново проигрывает фильм. И тут Тертулиано обнаруживает, что исполнитель одной из эпизодических ролей выглядит в точности так, как он сам пять лет назад. Герой решает во что бы то ни стало найти своего двойника. Поиски оборачиваются настоящим наваждением, путешествием в самое сердце метафизической тьмы…--Качество видео:WEB-DL.720p
Формат видео: MKV
Видео кодек: AVC (Main@L3.1)
Аудио кодек: AC3
Видео: AVC, 1280x532 (2.40:1), 23.976 fps, 3 991 Kbps (0.244 bit/pixel)
Аудио 1: AC-3, 48.0 KHz, 6 ch, 384 Kbps, CBR [RUS]
Аудио 2: AC-3, 48.0 KHz, 2 ch, 192 Kbps, CBR [RUS]
Аудио 3: AC-3, 48.0 KHz, 6 ch, 384 Kbps, CBR [ENG]-- --

Знаете ли Вы, что...

* Экранизация романа Жозе Сарамаго.
* Весь актерский состав подписал соглашение о конфиденциальности, которое запрещало им говорить или объяснять прессе о смысле пауков в фильме.
* По словам режиссера Дени Вильнёва, главную роль предлагали Хавьеру Бардему, но актер посчитал, что он не подходит для такой роли. Также главную роль предлагали Кристиану Бэйлу, но тот был вынужден отказаться из-за несогласованности рабочих графиков с другими его проектами.

Тех. данные (MI)

Общее
Enemy.2013.WEB-DL.720p.CINEMANIA.mkv
Формат : Matroska
Версия формата : Version 4 / Version 2
Размер файла : 3,21 Гбайт
Продолжительность : 1 ч. 30 м.
Общий поток : 5051 Кбит/сек
Название фильма : Release Group CINEMANIA
Дата кодирования : UTC 2014-04-26 12:02:08
Программа кодирования : mkvmerge v6.9.1 ('Blue Panther') 64bit built on Apr 18 2014 18:23:38
Библиотека кодирования : libebml v1.3.0 + libmatroska v1.4.1
Видео
Идентификатор : 1
Формат : AVC
Формат/Информация : Advanced Video Codec
Профиль формата : Main@L3.1
Параметр CABAC формата : Нет
Параметр ReFrames формата : 2 кадра
Идентификатор кодека : V_MPEG4/ISO/AVC
Продолжительность : 1 ч. 30 м.
Битрейт : 3991 Кбит/сек
Ширина : 1280 пикселей
Высота : 532 пикселя
Соотношение сторон : 2,40:1
Режим частоты кадров : Постоянный
Частота кадров : 23,976 кадра/сек
Цветовое пространство : YUV
Субдискретизация насыщенности : 4:2:0
Битовая глубина : 8 бит
Тип развёртки : Прогрессивная
Бит/(Пиксели*Кадры) : 0.244
Размер потока : 2,53 Гбайт (79%)
Заголовок : Release Group CINEMANIA
Язык : English
Default : Да
Forced : Нет
Основные цвета : BT.709
Характеристики трансфера : BT.709
Коэффициенты матрицы : BT.709
Аудио #1
Идентификатор : 2
Формат : AC-3
Формат/Информация : Audio Coding 3
Расширение режима : CM (complete main)
Параметр Endianness формата : Big
Идентификатор кодека : A_AC3
Продолжительность : 1 ч. 30 м.
Вид битрейта : Постоянный
Битрейт : 384 Кбит/сек
Каналы : 6 каналов
Расположение каналов : Front: L C R, Side: L R, LFE
Частота : 48,0 КГц
Битовая глубина : 16 бит
Метод сжатия : С потерями
Размер потока : 250 Мбайт (8%)
Заголовок : qwerty & R.A.I.M.
Язык : Russian
Default : Да
Forced : Да
Аудио #2
Идентификатор : 3
Формат : AC-3
Формат/Информация : Audio Coding 3
Расширение режима : CM (complete main)
Параметр Endianness формата : Big
Идентификатор кодека : A_AC3
Продолжительность : 1 ч. 30 м.
Вид битрейта : Постоянный
Битрейт : 192 Кбит/сек
Каналы : 2 канала
Расположение каналов : Front: L R
Частота : 48,0 КГц
Битовая глубина : 16 бит
Метод сжатия : С потерями
Размер потока : 125 Мбайт (4%)
Заголовок : ХиХиДок
Язык : Russian
Default : Нет
Forced : Нет
Аудио #3
Идентификатор : 4
Формат : AC-3
Формат/Информация : Audio Coding 3
Расширение режима : CM (complete main)
Параметр Endianness формата : Big
Идентификатор кодека : A_AC3
Продолжительность : 1 ч. 30 м.
Вид битрейта : Постоянный
Битрейт : 384 Кбит/сек
Каналы : 6 каналов
Расположение каналов : Front: L C R, Side: L R, LFE
Частота : 48,0 КГц
Битовая глубина : 16 бит
Метод сжатия : С потерями
Размер потока : 250 Мбайт (8%)
Язык : English
Default : Нет
Forced : Нет
Текст #1
Идентификатор : 5
Формат : UTF-8
Идентификатор кодека : S_TEXT/UTF8
Идентификатор кодека/Информация : UTF-8 Plain Text
Язык : Russian
Default : Нет
Forced : Нет
Текст #2
Идентификатор : 6
Формат : UTF-8
Идентификатор кодека : S_TEXT/UTF8
Идентификатор кодека/Информация : UTF-8 Plain Text
Язык : English
Default : Нет
Forced : Нет
Меню
00:00:00.000 : en:Chapter 1
00:04:57.000 : en:Chapter 2
00:09:19.000 : en:Chapter 3
00:15:45.000 : en:Chapter 4
00:22:25.000 : en:Chapter 5
00:26:24.000 : en:Chapter 6
00:30:57.000 : en:Chapter 7
00:35:43.000 : en:Chapter 8
00:37:34.000 : en:Chapter 9
00:42:11.000 : en:Chapter 10
00:48:55.000 : en:Chapter 11
00:52:50.000 : en:Chapter 12
00:55:15.000 : en:Chapter 13
00:59:19.000 : en:Chapter 14
01:02:25.000 : en:Chapter 15
01:06:32.000 : en:Chapter 16
01:10:08.000 : en:Chapter 17
01:15:10.000 : en:Chapter 18
01:20:39.000 : en:Chapter 19
01:23:16.000 : en:Chapter 20

Скриншоты



_________________
[Торрент-статистика]
[Профиль]  [ЛС] 
Показать сообщения:    
Ответить на тему

Текущее время: Сегодня 22:09

Часовой пояс: GMT + 4



Вы не можете начинать темы
Вы не можете отвечать на сообщения
Вы не можете редактировать свои сообщения
Вы не можете удалять свои сообщения
Вы не можете голосовать в опросах
Вы не можете прикреплять файлы к сообщениям
Вы не можете скачивать файлы