Быстрее пули / Faster (Джордж Тиллман мл.) [2010 г., боевик, триллер, драма, криминал, BDRip 720p]

Ответить на тему
 
Автор
Сообщение

luis5 ®

Пол:

Стаж: 7 лет 6 месяцев

Сообщений: 108

Репутация: 51 [+] [-]

Откуда: Кузбасс

Пост 11-Май-2014 21:50

[Цитировать] 

--Быстрее пули / Faster-- Год выпуска: 2010
Страна: США
Жанр: боевик, триллер, драма, криминал
Продолжительность: 01:37:57
Перевод: Профессиональный (дублированный)
Cубтитры: Russian (full), Russian (forced), English
Режиссер: Джордж Тиллман мл.
В ролях: Дуэйн Джонсон, Билли Боб Торнтон, Оливер Джексон-Коэн, Карла Гуджино, Мэгги Грэйс, Мун Бладгуд, Адевале Акиннуойе-Агбадже, Том Беренджер, Маурицио Лопез, Джим Гейнс
Описание: После десяти лет, проведенных в тюрьме, у Драйвера одна цель: выследить и уничтожить людей, замешанных в жестоком убийстве его брата. Наконец-то обретя свободу, он готов пойти на все, чтобы выполнить свою жестокую миссию и разделаться с теми, кто попал в его черный список.
Испытать радость отмщения Драйверу мешают полицейский-ветеран и наемный убийца, каждый из которых имеет свою причину свести с ним счеты. Теперь охота ведется на охотника…

Тип релиза: BDRip 720p
Контейнер: MKV
Видео кодек: H264 (AVC)
Аудио кодек: DTS, AC3 (Dolby Digital)
Видео: MPEG-4 AVC, 1280x534, 23.976 fps, L4.1 High @ 7000 Kbps
Аудио 1: DTS, 48.0 KHz, 6 ch, 1 510 Kbps, CBR (English)
Аудио 2: AC-3, 48.0 KHz, 6 ch, 448 Kbps, CBR (Russian)

Mediainfo

Faster.2010.BDRip.720p.x264-EbP.mkv
General
Unique ID : 183177165043374090525855360274665550126 (0x89CEA383B6013A79B4DD8B5B48BFB12E)
Complete name :Faster.2010.BDRip.720p.x264-EbP.mkv
Format : Matroska
File size : 6.13 GiB
Duration : 1h 37mn
Overall bit rate : 8 953 Kbps
Encoded date : UTC 2011-03-24 08:48:40
Writing application : mkvmerge v3.3.0 ('Language') built on Mar 24 2010 14:59:24
Writing library : libebml v0.8.0 + libmatroska v0.9.0
Video #1
ID : 1
Format : AVC
Format/Info : Advanced Video Codec
Format profile : High@L4.1
Format settings, CABAC : Yes
Format settings, ReFrames : 12 frames
Codec ID : V_MPEG4/ISO/AVC
Duration : 1h 37mn
Bit rate : 7 000 Kbps
Width : 1 280 pixels
Height : 534 pixels
Display aspect ratio : 2.35:1
Frame rate : 23.976 fps
Color space : YUV
Chroma subsampling : 4:2:0
Bit depth : 8 bits
Scan type : Progressive
Bits/(Pixel*Frame) : 0.427
Stream size : 4.67 GiB (76%)
Title : Faster.2010.D.BDRip.720p.EbP
Writing library : x264 core 112 r1867 22bfd31
Encoding settings : cabac=1 / ref=12 / deblock=1:-3:-3 / analyse=0x3:0x113 / me=tesa / subme=10 / psy=1 / psy_rd=1.00:0.00 / mixed_ref=1 / me_range=16 / chroma_me=1 / trellis=2 / 8x8dct=1 / cqm=0 / deadzone=21,11 / fast_pskip=0 / chroma_qp_offset=-2 / threads=12 / sliced_threads=0 / nr=0 / decimate=0 / interlaced=0 / constrained_intra=0 / bframes=8 / b_pyramid=2 / b_adapt=2 / b_bias=0 / direct=3 / weightb=1 / open_gop=0 / weightp=2 / keyint=250 / keyint_min=23 / scenecut=40 / intra_refresh=0 / rc=2pass / mbtree=0 / bitrate=7000 / ratetol=1.0 / qcomp=0.70 / qpmin=0 / qpmax=51 / qpstep=4 / cplxblur=20.0 / qblur=0.5 / ip_ratio=1.40 / pb_ratio=1.30 / aq=1:1.00
Language : English
Audio #2
ID : 2
Format : DTS
Format/Info : Digital Theater Systems
Codec ID : A_DTS
Duration : 1h 37mn
Bit rate mode : Constant
Bit rate : 1 510 Kbps
Channel(s) : 6 channels
Channel positions : Front: L C R, Side: L R, LFE
Sampling rate : 48.0 KHz
Bit depth : 24 bits
Compression mode : Lossy
Stream size : 1.03 GiB (17%)
Title : DTS 1510 kbps
Language : English
Audio #3
ID : 3
Format : AC-3
Format/Info : Audio Coding 3
Mode extension : CM (complete main)
Codec ID : A_AC3
Duration : 1h 37mn
Bit rate mode : Constant
Bit rate : 448 Kbps
Channel(s) : 6 channels
Channel positions : Front: L C R, Side: L R, LFE
Sampling rate : 48.0 KHz
Bit depth : 16 bits
Compression mode : Lossy
Stream size : 314 MiB (5%)
Title : AC3 448 kbps Dubbed
Language : Russian
Text #4
ID : 4
Format : UTF-8
Codec ID : S_TEXT/UTF8
Codec ID/Info : UTF-8 Plain Text
Title : Russian [full]
Language : Russian
Text #5
ID : 5
Format : UTF-8
Codec ID : S_TEXT/UTF8
Codec ID/Info : UTF-8 Plain Text
Title : forced
Language : Russian
Text #6
ID : 6
Format : UTF-8
Codec ID : S_TEXT/UTF8
Codec ID/Info : UTF-8 Plain Text
Title : English SUB [SDH]
Language : English

Скриншоты

[Торрент-статистика]
[Профиль]  [ЛС] 
Показать сообщения:    
Ответить на тему

Текущее время: Сегодня 00:50

Часовой пояс: GMT + 4



Вы не можете начинать темы
Вы не можете отвечать на сообщения
Вы не можете редактировать свои сообщения
Вы не можете удалять свои сообщения
Вы не можете голосовать в опросах
Вы не можете прикреплять файлы к сообщениям
Вы не можете скачивать файлы