Очень паранормальное кино / Paranormal Whacktivity (Роджер Рот / Roger Roth)[2013 г., ужасы, комедия, BDRip 720p]

Ответить на тему
 
Автор
Сообщение

awk05 ®

Пол:

Стаж: 4 года 5 месяцев

Сообщений: 1352

Репутация: 275 [+] [-]

Откуда: Западная Украина Ривне

Пост 10-Май-2014 00:16

[Цитировать] 

--Очень паранормальное кино / Paranormal Whacktivity-- Год выхода: 2013
Жанр: ужасы, комедия
Выпущено: США
Продолжительность: 01:29:44
Озвучивание: Дублированное [лицензия]
Субтитры: отсутствуют--Режиссер: Роджер Рот / Roger Roth--В ролях: Анелис Рёттгер, Шанель Райан, Стефани Даниэльсон, Мелинда Й. Коэн, Тереза Джун Тао, Анджелина Любомирова, Дженна Брайант, Майти Майк Мурга, Аннабелль Амирей, Амара Кэш--О фильме: Пародия на фильмы ужасов. Героями этой истории стала парочка влюблённых, только недавно переехавшая в новый дом. Они долго ждали этого момента, чтобы наконец-то быть наедине. Но в первую же ночь в момент сильного сексуального желания их внимание привлекает что-то необычное и тем самым портит долгожданный момент близости. Это повторяется каждый раз, как герои намереваются заняться сексом. Наступает момент, когда они становятся куда злее их домочадца — большого Зла.--Качество видео:BDRip 720p
Формат видео: MKV
Видео кодек: AVC (High@L4.1)
Аудио кодек: AC3, DTS
Видео: AVC, 1280x720 (16:9), 23.976 fps, 5 492 Kbps (0.249 bit/pixel)
Аудио 1: AC-3, 48.0 KHz, 6 ch, 384 Kbps, CBR[RUS]
Аудио 2: DTS, 48.0 KHz, 6 ch, 1 510 Kbps, CBR[ENG]-- --

Тех. данные (MI)

Общее
Уникальный идентификатор : 241024272096703481578241079365871139870 (0xB5539617768ACD46AC47661746D4FC1E)
Полное имя : E:\тест\Paranormal.Whacktivity.2013.D.BDRip.720p.mkv
Формат : Matroska
Версия формата : Version 2
Размер файла : 4,61 Гбайт
Продолжительность : 1 ч. 29 м.
Общий поток : 7350 Кбит/сек
Дата кодирования : UTC 2014-05-08 02:20:26
Программа кодирования : mkvmerge v5.2.0 ('I can't explain') built on Dec 18 2011 18:12:03
Библиотека кодирования : libebml v1.2.3 + libmatroska v1.3.0
Видео
Идентификатор : 1
Формат : AVC
Формат/Информация : Advanced Video Codec
Профиль формата : High@L4.1
Параметр CABAC формата : Да
Параметр ReFrames формата : 5 кадров
Режим смешивания : Header stripping
Идентификатор кодека : V_MPEG4/ISO/AVC
Продолжительность : 1 ч. 29 м.
Битрейт : 5492 Кбит/сек
Ширина : 1280 пикселей
Высота : 720 пикселей
Соотношение сторон : 16:9
Режим частоты кадров : Постоянный
Частота кадров : 23,976 кадра/сек
Цветовое пространство : YUV
Субдискретизация насыщенности : 4:2:0
Битовая глубина : 8 бит
Тип развёртки : Прогрессивная
Бит/(Пиксели*Кадры) : 0.249
Размер потока : 3,33 Гбайт (72%)
Библиотека кодирования : x264 core 135 r2345 f0c1c53
Настройки программы : cabac=1 / ref=5 / deblock=1:0:0 / analyse=0x3:0x133 / me=umh / subme=7 / psy=1 / psy_rd=1.00:0.00 / mixed_ref=1 / me_range=16 / chroma_me=1 / trellis=1 / 8x8dct=1 / cqm=0 / deadzone=21,11 / fast_pskip=0 / chroma_qp_offset=-2 / threads=12 / lookahead_threads=2 / sliced_threads=0 / nr=0 / decimate=1 / interlaced=0 / bluray_compat=0 / constrained_intra=0 / bframes=3 / b_pyramid=2 / b_adapt=2 / b_bias=0 / direct=3 / weightb=1 / open_gop=0 / weightp=2 / keyint=250 / keyint_min=23 / scenecut=40 / intra_refresh=0 / rc_lookahead=50 / rc=2pass / mbtree=1 / bitrate=5492 / ratetol=1.0 / qcomp=0.60 / qpmin=0 / qpmax=69 / qpstep=4 / cplxblur=20.0 / qblur=0.5 / ip_ratio=1.40 / aq=1:1.00
Язык : English
Default : Да
Forced : Нет
Аудио #1
Идентификатор : 2
Формат : AC-3
Формат/Информация : Audio Coding 3
Расширение режима : CM (complete main)
Параметр Endianness формата : Big
Режим смешивания : Header stripping
Идентификатор кодека : A_AC3
Продолжительность : 1 ч. 29 м.
Вид битрейта : Постоянный
Битрейт : 384 Кбит/сек
Каналы : 6 каналов
Расположение каналов : Front: L C R, Side: L R, LFE
Частота : 48,0 КГц
Битовая глубина : 16 бит
Метод сжатия : С потерями
Размер потока : 246 Мбайт (5%)
Язык : Russian
Default : Да
Forced : Да
Аудио #2
Идентификатор : 3
Формат : DTS
Формат/Информация : Digital Theater Systems
Режим : 16
Параметр Endianness формата : Big
Режим смешивания : Header stripping
Идентификатор кодека : A_DTS
Продолжительность : 1 ч. 29 м.
Вид битрейта : Постоянный
Битрейт : 1509 Кбит/сек
Каналы : 6 каналов
Расположение каналов : Front: L C R, Side: L R, LFE
Частота : 48,0 КГц
Битовая глубина : 24 бит
Метод сжатия : С потерями
Размер потока : 969 Мбайт (21%)
Язык : English
Default : Нет
Forced : Нет
Меню
00:00:00.000 : en:00:00:00.000
00:05:30.997 : en:00:05:30.997
00:15:29.971 : en:00:15:29.971
00:23:56.018 : en:00:23:56.018
00:32:05.966 : en:00:32:05.966
00:41:54.011 : en:00:41:54.011
00:51:47.980 : en:00:51:47.980
01:00:16.988 : en:01:00:16.988
01:09:38.925 : en:01:09:38.925
01:16:06.896 : en:01:16:06.896
01:21:11.950 : en:01:21:11.950
01:26:50.956 : en:01:26:50.956

Скриншоты


_________________
[Торрент-статистика]
[Профиль]  [ЛС] 
Показать сообщения:    
Ответить на тему

Текущее время: Сегодня 22:13

Часовой пояс: GMT + 4



Вы не можете начинать темы
Вы не можете отвечать на сообщения
Вы не можете редактировать свои сообщения
Вы не можете удалять свои сообщения
Вы не можете голосовать в опросах
Вы не можете прикреплять файлы к сообщениям
Вы не можете скачивать файлы