С 8 марта, мужчины!(Артем Аксененко) [2014 г., Комедия, мелодрама, BDRip 720p]

Ответить на тему
 
Автор
Сообщение

awk05 ®

Пол:

Стаж: 8 лет 9 месяцев

Сообщений: 1334

Репутация: 278 [+] [-]

Откуда: Западная Украина Ривне

Пост 09-Май-2014 23:34

[Цитировать] 

--С 8 марта, мужчины!-- Год выпуска: 2014
Страна: Россия, Беларусь, Беларусьфильм, Москит
Жанр: Комедия, мелодрама
Продолжительность: 01:36:56
Перевод: Не требуется
Cубтитры: Нет--Режиссер: Артем Аксененко--В ролях: Мария Берсенева (Анна Беркутова), Максим Виторган (Лев Касперский), Светлана Иванова (Виолетта), Михаил Башкатов (друг Константина, молодой ученый), Вера Алентова (Галина Семеновна), Константин Лавиш (Константин Орлов), Ксения Бородина (сотрудница научного центра «Сколково»), Владислав Лисовец (стилист Анны), Стивен Нельсон (друг Константина, молодой ученый), Алексей Климушкин (сотрудник научного центра «Сколково»), ...--О фильме: Анна Беркутова — блондинка в броне из мини-юбки и глубокого декольте. Ее оружие — красота, ум и абсолютная уверенность в том, что она знает мужчин. Она ведет важный проект в Сколково и собирается замуж за богатого иностранца. Но в день ее рождения, 8 марта, ее четкая, как финансовый отчет, судьба меняется: Аню бросает жених, ее проект крадут из Сколково, а сама она начинает слышать мысли мужчин. Эта способность сначала доводит ее до отчаяния, а затем открывает широкие возможности.--Качество видео:BDRip 720p
Формат видео: MKV
Видео кодек: AVC (Main@L3.1)
Аудио кодек: AC3
Видео: AVC, 960x720@1280x720 (16:9), 25.000 fps, 3 941 Kbps (0.228 bit/pixel)
Аудио: AC-3, 48.0 KHz, 6 ch, 384 Kbps, CBR[RUS] --

Скриншоты

Тех. данные (MI)

Общее
Уникальный идентификатор : 192756926891519673825674429035789614156 (0x9103A23D5D3E6A9FB357305F9356FC4C)
Полное имя : S.8.Marta.Muzchiny.2014.O.WEB-DL.720p.mkv
Формат : Matroska
Версия формата : Version 4 / Version 2
Размер файла : 3,04 Гбайт
Продолжительность : 1 ч. 38 м.
Общий поток : 4413 Кбит/сек
Дата кодирования : UTC 2014-05-09 06:00:02
Программа кодирования : mkvmerge v6.1.0 ('Old Devil') built on Mar 4 2013 09:10:42
Библиотека кодирования : libebml v1.3.0 + libmatroska v1.4.0
Видео
Идентификатор : 1
Формат : AVC
Формат/Информация : Advanced Video Codec
Профиль формата : Main@L3.1
Параметр CABAC формата : Нет
Параметр ReFrames формата : 2 кадра
Идентификатор кодека : V_MPEG4/ISO/AVC
Продолжительность : 1 ч. 38 м.
Битрейт : 3941 Кбит/сек
Ширина : 960 пикселей
Высота : 720 пикселей
Соотношение сторон : 16:9
Режим частоты кадров : Постоянный
Частота кадров : 25,000 кадров/сек
Цветовое пространство : YUV
Субдискретизация насыщенности : 4:2:0
Битовая глубина : 8 бит
Тип развёртки : Прогрессивная
Бит/(Пиксели*Кадры) : 0.228
Размер потока : 2,71 Гбайт (89%)
Язык : English
Default : Да
Forced : Нет
Основные цвета : BT.709
Характеристики трансфера : BT.709
Коэффициенты матрицы : BT.709
Аудио
Идентификатор : 2
Формат : AC-3
Формат/Информация : Audio Coding 3
Расширение режима : CM (complete main)
Параметр Endianness формата : Big
Идентификатор кодека : A_AC3
Продолжительность : 1 ч. 38 м.
Вид битрейта : Постоянный
Битрейт : 384 Кбит/сек
Каналы : 6 каналов
Расположение каналов : Front: L C R, Side: L R, LFE
Частота : 48,0 КГц
Битовая глубина : 16 бит
Метод сжатия : С потерями
Размер потока : 271 Мбайт (9%)
Язык : Russian
Default : Да
Forced : Нет
Меню
00:00:00.000 : en:Глава 1
00:06:49.000 : en:Глава 2
00:11:51.000 : en:Глава 3
00:16:53.000 : en:Глава 4
00:21:53.000 : en:Глава 5
00:26:54.000 : en:Глава 6
00:32:03.000 : en:Глава 7
00:37:08.000 : en:Глава 8
00:42:10.000 : en:Глава 9
00:47:12.000 : en:Глава 10
00:52:15.000 : en:Глава 11
00:57:16.000 : en:Глава 12
01:02:20.000 : en:Глава 13
01:07:21.000 : en:Глава 14
01:12:34.000 : en:Глава 15
01:25:23.000 : en:Глава 16
01:30:26.000 : en:Глава 17

_________________
[Торрент-статистика]
[Профиль]  [ЛС] 
Показать сообщения:    
Ответить на тему

Текущее время: Сегодня 10:45

Часовой пояс: GMT + 4



Вы не можете начинать темы
Вы не можете отвечать на сообщения
Вы не можете редактировать свои сообщения
Вы не можете удалять свои сообщения
Вы не можете голосовать в опросах
Вы не можете прикреплять файлы к сообщениям
Вы не можете скачивать файлы