3 дня на убийство / 3 Days to Kill (МакДжи / McG)[2014 г., боевик, криминал, триллер, драма, комедия, BDRip 720p] DUB [iTunes]

Ответить на тему
 
Автор
Сообщение

awk05 ®

Пол:

Стаж: 4 года 5 месяцев

Сообщений: 1352

Репутация: 275 [+] [-]

Откуда: Западная Украина Ривне

Пост 09-Май-2014 23:01

[Цитировать] 

--3 дня на убийство / 3 Days to Kill -- Год выпуска: 2014
Производство: США, Франция, Греция, Россия, Relativity Media, EuropaCorp
Жанр: боевик, криминал, триллер, драма, комедия
Продолжительность: 01:57:02
Перевод: Дублированный [iTunes]
Субтитры: Отсутствуют--Режиссер: МакДжи / McG--Актеры: Кевин Костнер (Ethan Renner), Эмбер Хёрд (Vivi Delay), Хейли Стайнфелд (Zooey Renner), Конни Нильсен (Christine Renner), Томас Лемаркус (The Albino), Рихард Заммель (The Wolf), Марк Андреони (Mitat Yilmaz), Бруно Риччи (Guido), Йонас Блоке (Hugh), Эрик Эбони (Jules), ...--Описание фильма: В секретной лаборатории ученые разработали препарат, который позволяет человеку справиться с любой неизлечимой болезнью. Руководство спецслужб предлагает принять это лекарство экс-агенту спецслужб Итану Раннеру, которому врачи объявили смертельный диагноз. Но он должен выполнить еще одно задание, которое, впрочем, может стоить ему жизни. Теперь вокруг Раннера начинают происходить странные вещи. Что это — галлюцинации, побочный эффект от таблеток или мир действительно полон ужаса и кошмара?--Качество видео:BDRip 720p
Формат видео: MKV
Видео кодек: AVC (High@L4.0)
Аудио кодек: AC-3, DTS
Видео: AVC, 1280x538 (2.40:1), 23.976 fps, 4 500 Kbps (0.273 bit/pixel)
Аудио 1: AC-3, 48.0 KHz, 6 ch, 384 Kbps, CBR [RUS]
Аудио 2: DTS, 48.0 KHz, 6 ch, 1 510 Kbps, CBR [ENG]-- --

Знаете ли Вы, что...

* Фильм снимался в Сербии и Франции.
* 18 апреля 2013 года во время съемок в Сербии Кевин Костнер встретился с премьер-министром Сербии Ивица Дачичом.

Тех. данные (MI)

Общее
Уникальный идентификатор : 231751216036649423940819223086357314405 (0xAE59A9211990B89894725B15C4B07B65)
Полное имя : D:\Фильмы\3.dnja.na.ubijstvo.2014.Theatrical.Cut.BDRip.720p.mkv
Формат : Matroska
Версия формата : Version 4 / Version 2
Размер файла : 5,23 Гбайт
Продолжительность : 1 ч. 57 м.
Общий поток : 6395 Кбит/сек
Дата кодирования : UTC 2014-05-22 00:56:18
Программа кодирования : mkvmerge v6.9.1 ('Blue Panther') 64bit built on Apr 18 2014 18:23:38
Библиотека кодирования : libebml v1.3.0 + libmatroska v1.4.1
Видео
Идентификатор : 1
Формат : AVC
Формат/Информация : Advanced Video Codec
Профиль формата : High@L4.0
Параметр CABAC формата : Да
Параметр ReFrames формата : 11 кадров
Идентификатор кодека : V_MPEG4/ISO/AVC
Продолжительность : 1 ч. 57 м.
Битрейт : 4500 Кбит/сек
Ширина : 1280 пикселей
Высота : 538 пикселей
Соотношение сторон : 2,40:1
Режим частоты кадров : Постоянный
Частота кадров : 23,976 кадра/сек
Цветовое пространство : YUV
Субдискретизация насыщенности : 4:2:0
Битовая глубина : 8 бит
Тип развёртки : Прогрессивная
Бит/(Пиксели*Кадры) : 0.273
Размер потока : 3,58 Гбайт (68%)
Библиотека кодирования : x264 core 130 r2273 b3065e6
Настройки программы : cabac=1 / ref=11 / deblock=1:-2:-1 / analyse=0x3:0x133 / me=umh / subme=10 / psy=1 / psy_rd=1.00:0.20 / mixed_ref=1 / me_range=24 / chroma_me=1 / trellis=2 / 8x8dct=1 / cqm=0 / deadzone=21,11 / fast_pskip=1 / chroma_qp_offset=-3 / threads=9 / lookahead_threads=1 / sliced_threads=0 / nr=0 / decimate=1 / interlaced=0 / bluray_compat=0 / constrained_intra=0 / bframes=4 / b_pyramid=2 / b_adapt=2 / b_bias=0 / direct=3 / weightb=1 / open_gop=0 / weightp=2 / keyint=250 / keyint_min=23 / scenecut=40 / intra_refresh=0 / rc_lookahead=60 / rc=2pass / mbtree=1 / bitrate=4500 / ratetol=1.0 / qcomp=0.60 / qpmin=0 / qpmax=69 / qpstep=4 / cplxblur=20.0 / qblur=0.5 / ip_ratio=1.40 / aq=1:1.00
Язык : English
Default : Да
Forced : Нет
Аудио #1
Идентификатор : 2
Формат : AC-3
Формат/Информация : Audio Coding 3
Расширение режима : CM (complete main)
Параметр Endianness формата : Big
Идентификатор кодека : A_AC3
Продолжительность : 1 ч. 57 м.
Вид битрейта : Постоянный
Битрейт : 384 Кбит/сек
Каналы : 6 каналов
Расположение каналов : Front: L C R, Side: L R, LFE
Частота : 48,0 КГц
Битовая глубина : 16 бит
Метод сжатия : С потерями
Размер потока : 321 Мбайт (6%)
Язык : Russian
Default : Да
Forced : Нет
Аудио #2
Идентификатор : 3
Формат : DTS
Формат/Информация : Digital Theater Systems
Режим : 16
Параметр Endianness формата : Big
Идентификатор кодека : A_DTS
Продолжительность : 1 ч. 57 м.
Вид битрейта : Постоянный
Битрейт : 1509 Кбит/сек
Каналы : 6 каналов
Расположение каналов : Front: L C R, Side: L R, LFE
Частота : 48,0 КГц
Битовая глубина : 24 бит
Метод сжатия : С потерями
Размер потока : 1,23 Гбайт (24%)
Язык : English
Default : Нет
Forced : Нет
Меню
00:00:00.000 : en:00:00:00.000
00:03:35.132 : en:00:03:35.132
00:06:55.206 : en:00:06:55.206
00:10:49.482 : en:00:10:49.482
00:15:27.468 : en:00:15:27.468
00:20:18.467 : en:00:20:18.467
00:24:32.721 : en:00:24:32.721
00:28:36.214 : en:00:28:36.214
00:33:25.420 : en:00:33:25.420
00:36:53.044 : en:00:36:53.044
00:39:32.912 : en:00:39:32.912
00:43:14.926 : en:00:43:14.926
00:48:20.731 : en:00:48:20.731
00:52:12.379 : en:00:52:12.379
00:56:39.855 : en:00:56:39.855
01:07:27.376 : en:01:07:27.376
01:12:36.602 : en:01:12:36.602
01:18:50.809 : en:01:18:50.809
01:24:20.013 : en:01:24:20.013
01:29:43.044 : en:01:29:43.044
01:36:25.529 : en:01:36:25.529
01:39:32.675 : en:01:39:32.675
01:46:41.353 : en:01:46:41.353
01:49:38.822 : en:01:49:38.822

Скриншоты


_________________
[Торрент-статистика]
[Профиль]  [ЛС] 
Показать сообщения:    
Ответить на тему

Текущее время: Сегодня 16:08

Часовой пояс: GMT + 4



Вы не можете начинать темы
Вы не можете отвечать на сообщения
Вы не можете редактировать свои сообщения
Вы не можете удалять свои сообщения
Вы не можете голосовать в опросах
Вы не можете прикреплять файлы к сообщениям
Вы не можете скачивать файлы