Джек Райан: Теория хаоса / Jack Ryan: Shadow Recruit (Кеннет Брана / Kenneth Branagh) [2014 г., боевик, триллер, драма, BDRip 720p] [iTunes]

Ответить на тему
 
Автор
Сообщение

awk05 ®

Пол:

Стаж: 8 лет 9 месяцев

Сообщений: 1334

Репутация: 278 [+] [-]

Откуда: Западная Украина Ривне

Пост 09-Май-2014 14:35

[Цитировать] 

--Джек Райан: Теория хаоса / Jack Ryan: Shadow Recruit-- Год выпуска: 2014 г.
Страна: США, Россия / Paramount Pictures, Skydance Productions, Mace Neufeld Productions
Жанр: боевик, триллер, драма
Продолжительность: 01:45:48
Перевод: Дублированное [iTunes]
Субтитры: Английский (forced, full, SDH), испанский, португальский, немецкий, голландский--Режиссер: Кеннет Брана / Kenneth Branagh--В ролях: Крис Пайн (Jack Ryan), Кира Найтли (Cathy Muller), Кеннет Брана (Viktor Cherevin), Кевин Костнер (Thomas Harper), Алек Утгофф (Aleksandr Borovsky), Джемма Чан (Amy Chang), Петер Андерссон (Dimitri Lemkov), Елена Великанова (Katya), Нонсо Анози (Embee Deng), Колм Фиор (Rob Behringer), ...--Описание: Рядовой аналитик ЦРУ Джек Райан приезжает в Москву, чтобы решить простую задачу: ему нужно проверить операции компании, принадлежащей миллиардеру Виктору Черевину. Но все усложняется, когда Райана пытаются убить. Теперь он вынужден защищаться с оружием в руках, вспоминая армейские навыки и неожиданно для себя оказываясь в роли настоящего спецагента. На помощь Джеку приходят маститый офицер спецслужб Харпер и внезапно оказавшаяся в Москве супруга Кэти. Но облегчит ли это миссию, которую теперь предстоит выполнить Райану, — предотвратить международный заговор, грозящий погрузить весь мир в хаос?--Качество: BDRip 720p
Формат видео: MKV
Видео кодек: AVC (High@L4.1)
Аудио кодек: AC3, DTS
Видео: AVC, 1280x536 (2.40:1), 23.976 fps, 6 500 Kbps (0.395 bit/pixel)
Аудио #1: AC-3, 48.0 KHz, 6 ch, 384 Kbps, CBR [RUS]
Аудио #2: AC-3, 48.0 KHz, 6 ch, 384 Kbps, CBR [ENG]
Аудио #3: DTS, 48.0 KHz, 6 ch, 1510 Kbps, CBR [ENG]-- --

Знаете ли Вы, что...

* Автор литературного мира Джека Райана американский писатель Том Клэнси. Первый роман датирован 1984 г., последний — о сыне Джеке Райане младшем 2010 г.
* Первоначально сценарий Адама Козада назывался «Дубай» и должен был стать экшен-фильмом с Эриком Бана. Однако студия Paramount попросила Козада переписать сценарий и изменить главного героя на Джека Райана.
* Во время съемок сцен борьбы Крис Пайн сломал себе палец.
* На роль Кэти Райан, жены Джека Райана, доставшуюся Кире Найтли, рассматривались также Фелисити Джонс, Эванджелин Лилли, Кейт Бекинсейл и Джессика Бил.
* Часть съемок проходила в Москве на киностудии «Мосфильм» и в центре столицы (у храма Христа Спасителя, Кремля, Кремлевской набережной, на Большом Каменном и Патриаршем мостах).
* Крис Пайн сыграл с предыдущим Джеком Райаном, Беном Аффлеком, в фильме «Козырные тузы» (2006). Аффлек, в свою очередь, снимался с одним из своих предшественников, Алеком Болдуином, в фильме «Перл Харбор» (2001), а Болдуин со своим последователем Харрисоном Фордом — в фильме «Деловая женщина» (1988). Помимо этого, Пайн и Болдуин вместе работали в фильме «Хранители снов» (2012).
* Первоначально режиссером фильма был Джек Бендер, но из-за обязательств по работе над другим проектом он был заменен Кеннетом Браной.
* Кевин Костнер фактически был первым актером, которому предложили роль Джека Райана в фильме «Охота за «Красным Октябрем»» (1990), но он отказался, чтобы сняться в фильме «Танцующий с волками» (1990). Кстати, именно в фильме «Охота за «Красным Октябрем»» (1990) впервые появился персонаж Джек Райан.
* Ранее Кеннет Брана исполнял роли британских, немецких, австралийских и американских персонажей. В этом фильме он впервые сыграл русского.
* У Колма Фиора была роль второго плана в фильме «Цена страха» (2002), который является предыдущим перезапуском франшизы о Джеке Райане с Беном Аффлеком в главной роли.
* Крис Пайн сказал, что самым сложным в его роли было сделать Джека Райана захватывающим персонажем, потому что в отличие от Джейсона Борна или Джеймса Бонда лучшее оружие Райана — это его ум.
* В рамках подготовки к съемкам фильма режиссер Кеннет Брана прочитал все книги Тома Клэнси о Джеке Райане и посмотрел все фильмы об этом персонаже.
* Около 80 процентов фильма было снято на пленку, а остальные 20 на цифру.
* Цифровые съемки проходили с использованием камеры фирмы Red.
* Большая часть фильма снималась в Лондоне. Некоторые сцены снимались в Ливерпуле и Нью-Йорке.
* В российском кинотеатральном прокате из фильма было вырезано несколько сцен, которые прокатчик посчитал оскорбительными для российского зрителя.

Тех. данные (MI)

Общее
Уникальный идентификатор : 182148263246778629308085910898533734842 (0x89087ABD44C47BEF9A9726552AE019BA)
Полное имя : D:\Фильмы\Dzhek.Rayan.Teoriya.haosa.2014.BDRip.720p.mkv
Формат : Matroska
Версия формата : Version 4 / Version 2
Размер файла : 6,46 Гбайт
Продолжительность : 1 ч. 45 м.
Общий поток : 8769 Кбит/сек
Дата кодирования : UTC 2014-05-12 20:17:14
Программа кодирования : mkvmerge v6.9.1 ('Blue Panther') 64bit built on Apr 18 2014 18:23:38
Библиотека кодирования : libebml v1.3.0 + libmatroska v1.4.1
Attachment : Yes
Видео
Идентификатор : 1
Формат : AVC
Формат/Информация : Advanced Video Codec
Профиль формата : High@L4.1
Параметр CABAC формата : Да
Параметр ReFrames формата : 12 кадров
Идентификатор кодека : V_MPEG4/ISO/AVC
Продолжительность : 1 ч. 45 м.
Битрейт : 6500 Кбит/сек
Ширина : 1280 пикселей
Высота : 536 пикселей
Соотношение сторон : 2,40:1
Режим частоты кадров : Постоянный
Частота кадров : 23,976 кадра/сек
Цветовое пространство : YUV
Субдискретизация насыщенности : 4:2:0
Битовая глубина : 8 бит
Тип развёртки : Прогрессивная
Бит/(Пиксели*Кадры) : 0.395
Размер потока : 4,66 Гбайт (72%)
Библиотека кодирования : x264 core 142 r2409+42 04be48a tMod [8-bit@4:2:0 X86_64]
Настройки программы : cabac=1 / ref=12 / deblock=1:-3:-3 / analyse=0x3:0x113 / me=umh / subme=11 / psy=1 / fade_compensate=0.00 / psy_rd=1.10:0.05 / mixed_ref=1 / me_range=32 / chroma_me=1 / trellis=2 / 8x8dct=1 / cqm=0 / deadzone=21,11 / fast_pskip=0 / chroma_qp_offset=-3 / threads=18 / lookahead_threads=3 / sliced_threads=0 / nr=0 / decimate=0 / interlaced=0 / bluray_compat=0 / constrained_intra=0 / fgo=0 / bframes=8 / b_pyramid=2 / b_adapt=2 / b_bias=0 / direct=3 / weightb=1 / open_gop=0 / weightp=2 / keyint=240 / keyint_min=24 / scenecut=40 / intra_refresh=0 / rc_lookahead=40 / rc=2pass / mbtree=0 / bitrate=6500 / ratetol=1.0 / qcomp=0.70 / qpmin=0:0:0 / qpmax=69:69:69 / qpstep=4 / cplxblur=20.0 / qblur=0.5 / vbv_maxrate=40000 / vbv_bufsize=30000 / nal_hrd=none / filler=0 / ip_ratio=1.20 / pb_ratio=1.20 / aq=4:0.75 / aq-sensitivity=10.00 / aq-factor=1.00:1.00:1.00 / aq2=0 / aq3=0
Язык : English
Default : Да
Forced : Нет
Аудио #1
Идентификатор : 2
Формат : AC-3
Формат/Информация : Audio Coding 3
Расширение режима : CM (complete main)
Параметр Endianness формата : Big
Идентификатор кодека : A_AC3
Продолжительность : 1 ч. 45 м.
Вид битрейта : Постоянный
Битрейт : 384 Кбит/сек
Каналы : 6 каналов
Расположение каналов : Front: L C R, Side: L R, LFE
Частота : 48,0 КГц
Битовая глубина : 16 бит
Метод сжатия : С потерями
Размер потока : 290 Мбайт (4%)
Язык : Russian
Default : Да
Forced : Нет
Аудио #2
Идентификатор : 3
Формат : AC-3
Формат/Информация : Audio Coding 3
Расширение режима : CM (complete main)
Параметр Endianness формата : Big
Идентификатор кодека : A_AC3
Продолжительность : 1 ч. 45 м.
Вид битрейта : Постоянный
Битрейт : 384 Кбит/сек
Каналы : 6 каналов
Расположение каналов : Front: L C R, Side: L R, LFE
Частота : 48,0 КГц
Битовая глубина : 16 бит
Метод сжатия : С потерями
Размер потока : 290 Мбайт (4%)
Язык : English
Default : Нет
Forced : Нет
Аудио #3
Идентификатор : 4
Формат : DTS
Формат/Информация : Digital Theater Systems
Режим : 16
Параметр Endianness формата : Big
Идентификатор кодека : A_DTS
Продолжительность : 1 ч. 45 м.
Вид битрейта : Постоянный
Битрейт : 1509 Кбит/сек
Каналы : 6 каналов
Расположение каналов : Front: L C R, Side: L R, LFE
Частота : 48,0 КГц
Битовая глубина : 24 бит
Метод сжатия : С потерями
Размер потока : 1,11 Гбайт (17%)
Язык : English
Default : Нет
Forced : Нет
Текст #1
Идентификатор : 5
Формат : UTF-8
Идентификатор кодека : S_TEXT/UTF8
Идентификатор кодека/Информация : UTF-8 Plain Text
Заголовок : Forced
Язык : English
Default : Нет
Forced : Нет
Текст #2
Идентификатор : 6
Формат : UTF-8
Идентификатор кодека : S_TEXT/UTF8
Идентификатор кодека/Информация : UTF-8 Plain Text
Заголовок : Full
Язык : English
Default : Нет
Forced : Нет
Текст #3
Идентификатор : 7
Формат : UTF-8
Идентификатор кодека : S_TEXT/UTF8
Идентификатор кодека/Информация : UTF-8 Plain Text
Заголовок : SDH
Язык : English
Default : Нет
Forced : Нет
Текст #4
Идентификатор : 8
Формат : UTF-8
Идентификатор кодека : S_TEXT/UTF8
Идентификатор кодека/Информация : UTF-8 Plain Text
Язык : Spanish
Default : Нет
Forced : Нет
Текст #5
Идентификатор : 9
Формат : UTF-8
Идентификатор кодека : S_TEXT/UTF8
Идентификатор кодека/Информация : UTF-8 Plain Text
Язык : Portuguese
Default : Нет
Forced : Нет
Текст #6
Идентификатор : 10
Формат : UTF-8
Идентификатор кодека : S_TEXT/UTF8
Идентификатор кодека/Информация : UTF-8 Plain Text
Язык : German
Default : Нет
Forced : Нет
Текст #7
Идентификатор : 11
Формат : UTF-8
Идентификатор кодека : S_TEXT/UTF8
Идентификатор кодека/Информация : UTF-8 Plain Text
Язык : Dutch
Default : Нет
Forced : Нет
Меню
00:00:00.000 : en:00:00:00.000
00:05:45.470 : en:00:05:45.470
00:12:02.472 : en:00:12:02.472
00:18:11.007 : en:00:18:11.007
00:23:38.792 : en:00:23:38.792
00:31:19.795 : en:00:31:19.795
00:40:26.299 : en:00:40:26.299
00:48:47.466 : en:00:48:47.466
00:57:28.070 : en:00:57:28.070
01:06:19.642 : en:01:06:19.642
01:13:07.466 : en:01:13:07.466
01:21:53.867 : en:01:21:53.867
01:27:07.097 : en:01:27:07.097
01:35:21.507 : en:01:35:21.507
01:38:55.054 : en:01:38:55.054

Скриншоты




_________________
[Торрент-статистика]
[Профиль]  [ЛС] 
Показать сообщения:    
Ответить на тему

Текущее время: Сегодня 11:32

Часовой пояс: GMT + 4



Вы не можете начинать темы
Вы не можете отвечать на сообщения
Вы не можете редактировать свои сообщения
Вы не можете удалять свои сообщения
Вы не можете голосовать в опросах
Вы не можете прикреплять файлы к сообщениям
Вы не можете скачивать файлы