Челленджер / The Challenger (Джеймс Хоуз / James Hawes)[2013 г., драма, BDRip 720p]MVO Amedia + Original

Ответить на тему
 
Автор
Сообщение

awk05 ®

Пол:

Стаж: 8 лет 9 месяцев

Сообщений: 1334

Репутация: 278 [+] [-]

Откуда: Западная Украина Ривне

Пост 05-Май-2014 23:31

[Цитировать] 

--Челленджер / The Challenger-- Выпущено: Великобритания, США
Год выхода: 2013
Жанр: драма
Продолжительность: 01:29:09
Озвучивание: Профессиональное (многоголосое) [Amedia]
Субтитры: English--Режиссер: Джеймс Хоуз / James Hawes--В ролях: Уильям Хёрт, Брюс Гринвуд, Джоэнн Уэлли, Брайан Деннехи, Кевин МакНэлли, Лэнгли Кирквуд, Ив Бест, Шон Майкл, Генри Гудман, Роберт Хоббс--О фильме: История покорения космоса – это не только успешные полеты, преодоление гравитации, привыкание к невесомости и многочисленные тренировки, без которых ни один космонавт не выдержит полет. Освоение космоса – это трудоемкий и опасный процесс, в котором не обходится без жертв и потерь, и не метафорических, а вполне ощутимых. Одна из таких потерь произошла в январе 1986 году и стала настоящим шоком: через минуту с небольшим после начала полета космического корабля «Челленджер» он взорвался, унеся жизни семерых американских астронавтов – всего экипажа.
Как это произошло и что за неполадка стала причиной взрыва? Почему корабль перенес успешный запуск, но не смог продолжить полет? Как избежать повторения этой трагедии и что сказать членам семей астронавтов, погибших так неожиданно и трагично? Расследование этого загадочного происшествия ложится на плечи Ричарда Фейнмана, который в поисках истины готов самолично проверить каждую версию до мельчайших деталей.--Качество видео:BDRip 720p
Формат видео: MKV
Видео кодек: AVC (High@L4.1)
Аудио кодек: AC3
Видео: AVC, 1280x720 (16:9), 25.000 кадра/сек, 5 070 Кбит/сек, (0.220 бит/пиксели*кадры)
Аудио 1: 2 канала Front: L R, 48,0 КГц, 192 Кбит/сек, 16 бит CBR [RUS]
Аудио 2: 2 канала Front: L R, 48,0 КГц, 192 Кбит/сек, 16 бит CBR [ENG]--

Тех. данные (MI)

Общее
The.Challenger.2013.Blu.Ray.720p.CINEMANIA.mkv
Формат : Matroska
Версия формата : Version 4 / Version 2
Размер файла : 3,40 Гбайт
Продолжительность : 1 ч. 29 м.
Общий поток : 5456 Кбит/сек
Название фильма : Release Group CINEMANIA
Дата кодирования : UTC 2014-04-29 19:48:17
Программа кодирования : mkvmerge v6.9.1 ('Blue Panther') 64bit built on Apr 18 2014 18:23:38
Библиотека кодирования : libebml v1.3.0 + libmatroska v1.4.1
Видео
Идентификатор : 1
Формат : AVC
Формат/Информация : Advanced Video Codec
Профиль формата : High@L4.1
Параметр CABAC формата : Да
Параметр ReFrames формата : 5 кадров
Идентификатор кодека : V_MPEG4/ISO/AVC
Продолжительность : 1 ч. 29 м.
Битрейт : 5070 Кбит/сек
Ширина : 1280 пикселей
Высота : 720 пикселей
Соотношение сторон : 16:9
Режим частоты кадров : Постоянный
Частота кадров : 25,000 кадров/сек
Цветовое пространство : YUV
Субдискретизация насыщенности : 4:2:0
Битовая глубина : 8 бит
Тип развёртки : Прогрессивная
Бит/(Пиксели*Кадры) : 0.220
Размер потока : 3,09 Гбайт (91%)
Заголовок : Release Group CINEMANIA
Библиотека кодирования : x264 core 142 r2431kMod ac76440
Настройки программы : cabac=1 / ref=5 / deblock=1:0:0 / analyse=0x3:0x133 / me=umh / subme=7 / psy=1 / fade_compensate=0.00 / psy_rd=1.00:0.00 / mixed_ref=1 / me_range=16 / chroma_me=1 / trellis=1 / 8x8dct=1 / cqm=0 / deadzone=21,11 / fast_pskip=0 / chroma_qp_offset=-2 / threads=6 / lookahead_threads=1 / sliced_threads=0 / nr=0 / decimate=1 / interlaced=0 / bluray_compat=0 / constrained_intra=0 / fgo=0 / bframes=3 / b_pyramid=2 / b_adapt=2 / b_bias=0 / direct=3 / weightb=1 / open_gop=0 / weightp=2 / keyint=250 / keyint_min=25 / scenecut=40 / intra_refresh=0 / rc_lookahead=50 / rc=2pass / mbtree=1 / bitrate=5070 / ratetol=1.0 / qcomp=0.60 / qpmin=0 / qpmax=69 / qpstep=4 / cplxblur=20.0 / qblur=0.5 / ip_ratio=1.40 / aq=1:1.00
Язык : English
Default : Нет
Forced : Нет
Аудио #1
Идентификатор : 2
Формат : AC-3
Формат/Информация : Audio Coding 3
Расширение режима : CM (complete main)
Параметр Endianness формата : Big
Идентификатор кодека : A_AC3
Продолжительность : 1 ч. 29 м.
Вид битрейта : Постоянный
Битрейт : 192 Кбит/сек
Каналы : 2 канала
Расположение каналов : Front: L R
Частота : 48,0 КГц
Битовая глубина : 16 бит
Метод сжатия : С потерями
Размер потока : 122 Мбайт (4%)
Заголовок : Amedia
Язык : Russian
Default : Да
Forced : Да
Аудио #2
Идентификатор : 3
Формат : AC-3
Формат/Информация : Audio Coding 3
Расширение режима : CM (complete main)
Параметр Endianness формата : Big
Идентификатор кодека : A_AC3
Продолжительность : 1 ч. 29 м.
Вид битрейта : Постоянный
Битрейт : 192 Кбит/сек
Каналы : 2 канала
Расположение каналов : Front: L R
Частота : 48,0 КГц
Битовая глубина : 16 бит
Метод сжатия : С потерями
Размер потока : 122 Мбайт (4%)
Язык : English
Default : Нет
Forced : Нет
Текст
Идентификатор : 4
Формат : UTF-8
Идентификатор кодека : S_TEXT/UTF8
Идентификатор кодека/Информация : UTF-8 Plain Text
Язык : English
Default : Нет
Forced : Нет

Скриншоты


_________________
[Торрент-статистика]
[Профиль]  [ЛС] 
Показать сообщения:    
Ответить на тему

Текущее время: Сегодня 11:52

Часовой пояс: GMT + 4



Вы не можете начинать темы
Вы не можете отвечать на сообщения
Вы не можете редактировать свои сообщения
Вы не можете удалять свои сообщения
Вы не можете голосовать в опросах
Вы не можете прикреплять файлы к сообщениям
Вы не можете скачивать файлы