Токарев / Tokarev (Пако Кабесас / Paco Cabezas) [2014 г., Боевик, Триллер, Криминал, BDRip 720p] MVO BaibaKo+DVO Proton&Hell+AVO XixiDok

Ответить на тему
 
Автор
Сообщение

awk05 ®

Пол:

Стаж: 8 лет 10 месяцев

Сообщений: 1334

Репутация: 278 [+] [-]

Откуда: Западная Украина Ривне

Пост 05-Май-2014 00:38

[Цитировать] 

--Токарев / Tokarev- -Год выпуска: 2014 г.
Страна: США, Франция
Жанр: Боевик, Триллер, Криминал
Продолжительность: 01:38:27
Перевод: Профессиональный многоголосый [BaibaKo]+ Любительский (двухголосый) [Proton&Hell]+Любительский (одноголосый) [XixiDok]
Оригинальная аудиодорожка: английский
Субтитры: Русские, Английские--Режиссер: Пако Кабесас / Paco Cabezas--В ролях: Николас Кейдж (Paul Maguire), Рэйчел Николс (Vanessa), Макс Райан (Kane), Майкл МакГрэйди (Danny Doherty), Петер Стормаре (Francis O'Connell), Павел Личникофф (Chernov), Патрис Колс (Anton), Макс Фаулер (Mike), Обри Пиплз (Caitlin Maguire), Джек Фалахи (), Дэнни Гловер (Detective St. John)--Описание: Пол Магуайр прежде был крупной фигурой в криминальном мире, однако несколько лет назад отошёл от дел и теперь старается вести жизнь законопослушного гражданина. Однако когда его юная дочь попадает в руки русских мафиози, Полу приходится воспользоваться своими старыми связями и вместе с командой бывших соратников собственноручно спасать заложницу. Впрочем, вскоре выясняется, что причиной похищения стало всего лишь одно недоразумение...--Качество видео:BDRip 720p
Формат видео: MKV
Видео кодек: AVC (High@L4.1)
Аудио кодек: AC3
Видео: AVC, 1280x544 (2.35:1), 23,976 кадра/сек, 2 175 Кбит/сек, (0.130 бит/пиксели*кадры)
Аудио 1: AC-3, 6 каналов Front: L C R, Side: L R, LFE, 48,0 КГц, 448 Кбит/сек, 16 бит CBR [RUS] BaibaKo
Аудио 2: AC-3 Dolby Digital, 2 канала Front: L R, 48,0 КГц, 192 Кбит/сек, 16 бит CBR [RUS] Proton&Hell
Аудио 3: AC-3, 6 каналов Front: L C R, Side: L R, LFE, 48,0 КГц, 640 Кбит/сек, 16 бит CBR [RUS] XixiDok
Аудио 4: AC-3, 6 каналов Front: L C R, Side: L R, LFE, 48,0 КГц, 448 Кбит/сек, 16 бит CBR [ENG]-- --

Тех. данные (MI)

Общее
Уникальный идентификатор : 237352724290838178182249077144328836733 (0xB29078CF0D496A5BA225FE8E77BB967D)
Полное имя : E:\тест\Tokarev.2014.BD.720.Hot-Film.mkv
Формат : Matroska
Версия формата : Version 2
Размер файла : 2,69 Гбайт
Продолжительность : 1 ч. 38 м.
Общий поток : 3905 Кбит/сек
Дата кодирования : UTC 2014-05-04 19:41:52
Программа кодирования : mkvmerge v5.8.0 ('No Sleep / Pillow') built on Sep 2 2012 15:37:04
Библиотека кодирования : libebml v1.2.3 + libmatroska v1.3.0
Видео
Идентификатор : 1
Формат : AVC
Формат/Информация : Advanced Video Codec
Профиль формата : High@L4.1
Параметр CABAC формата : Да
Параметр ReFrames формата : 9 кадров
Идентификатор кодека : V_MPEG4/ISO/AVC
Продолжительность : 1 ч. 38 м.
Битрейт : 2175 Кбит/сек
Ширина : 1280 пикселей
Высота : 544 пикселя
Соотношение сторон : 2,35:1
Режим частоты кадров : Постоянный
Частота кадров : 23,976 кадра/сек
Цветовое пространство : YUV
Субдискретизация насыщенности : 4:2:0
Битовая глубина : 8 бит
Тип развёртки : Прогрессивная
Бит/(Пиксели*Кадры) : 0.130
Размер потока : 1,44 Гбайт (54%)
Библиотека кодирования : x264 core 138 r2358 9e941d1
Настройки программы : cabac=1 / ref=9 / deblock=1:-3:-3 / analyse=0x3:0x133 / me=umh / subme=11 / psy=1 / psy_rd=1.00:0.10 / mixed_ref=1 / me_range=32 / chroma_me=1 / trellis=2 / 8x8dct=1 / cqm=0 / deadzone=21,11 / fast_pskip=0 / chroma_qp_offset=-3 / threads=12 / lookahead_threads=2 / sliced_threads=0 / nr=0 / decimate=0 / interlaced=0 / bluray_compat=0 / constrained_intra=0 / bframes=7 / b_pyramid=2 / b_adapt=2 / b_bias=0 / direct=3 / weightb=1 / open_gop=0 / weightp=2 / keyint=240 / keyint_min=23 / scenecut=40 / intra_refresh=0 / rc_lookahead=40 / rc=2pass / mbtree=0 / bitrate=2175 / ratetol=1.0 / qcomp=0.60 / qpmin=0 / qpmax=69 / qpstep=4 / cplxblur=20.0 / qblur=0.5 / vbv_maxrate=50000 / vbv_bufsize=62500 / nal_hrd=none / ip_ratio=1.35 / pb_ratio=1.25 / aq=1:0.80
Язык : English
Default : Да
Forced : Нет
Аудио #1
Идентификатор : 2
Формат : AC-3
Формат/Информация : Audio Coding 3
Расширение режима : CM (complete main)
Параметр Endianness формата : Big
Идентификатор кодека : A_AC3
Продолжительность : 1 ч. 38 м.
Вид битрейта : Постоянный
Битрейт : 448 Кбит/сек
Каналы : 6 каналов
Расположение каналов : Front: L C R, Side: L R, LFE
Частота : 48,0 КГц
Битовая глубина : 16 бит
Метод сжатия : С потерями
Размер потока : 315 Мбайт (11%)
Заголовок : BaibaKo
Язык : Russian
Default : Да
Forced : Нет
Аудио #2
Идентификатор : 3
Формат : AC-3
Формат/Информация : Audio Coding 3
Профиль формата : Dolby Digital
Расширение режима : CM (complete main)
Параметр Endianness формата : Big
Идентификатор кодека : A_AC3
Продолжительность : 1 ч. 38 м.
Вид битрейта : Постоянный
Битрейт : 192 Кбит/сек
Каналы : 2 канала
Расположение каналов : Front: L R
Частота : 48,0 КГц
Битовая глубина : 16 бит
Метод сжатия : С потерями
Размер потока : 135 Мбайт (5%)
Заголовок : Proton&Hell
Язык : Russian
Default : Нет
Forced : Нет
Аудио #3
Идентификатор : 4
Формат : AC-3
Формат/Информация : Audio Coding 3
Расширение режима : CM (complete main)
Параметр Endianness формата : Big
Идентификатор кодека : A_AC3
Продолжительность : 1 ч. 38 м.
Вид битрейта : Постоянный
Битрейт : 640 Кбит/сек
Каналы : 6 каналов
Расположение каналов : Front: L C R, Side: L R, LFE
Частота : 48,0 КГц
Битовая глубина : 16 бит
Метод сжатия : С потерями
Размер потока : 451 Мбайт (16%)
Заголовок : Хихидок
Язык : Russian
Default : Нет
Forced : Нет
Аудио #4
Идентификатор : 5
Формат : AC-3
Формат/Информация : Audio Coding 3
Расширение режима : CM (complete main)
Параметр Endianness формата : Big
Идентификатор кодека : A_AC3
Продолжительность : 1 ч. 38 м.
Вид битрейта : Постоянный
Битрейт : 448 Кбит/сек
Каналы : 6 каналов
Расположение каналов : Front: L C R, Side: L R, LFE
Частота : 48,0 КГц
Битовая глубина : 16 бит
Метод сжатия : С потерями
Размер потока : 315 Мбайт (11%)
Заголовок : Original
Язык : English
Default : Нет
Forced : Нет
Текст #1
Идентификатор : 6
Формат : UTF-8
Идентификатор кодека : S_TEXT/UTF8
Идентификатор кодека/Информация : UTF-8 Plain Text
Заголовок : Full
Язык : Russian
Default : Нет
Forced : Нет
Текст #2
Идентификатор : 7
Формат : UTF-8
Идентификатор кодека : S_TEXT/UTF8
Идентификатор кодека/Информация : UTF-8 Plain Text
Заголовок : Full
Язык : English
Default : Нет
Forced : Нет
Меню
00:00:00.000 : :Chapter 01
00:08:35.598 : :Chapter 02
00:16:44.295 : :Chapter 03
00:24:59.998 : :Chapter 04
00:37:21.448 : :Chapter 05
00:42:16.200 : :Chapter 06
00:48:20.356 : :Chapter 07
00:55:27.032 : :Chapter 08
01:07:48.731 : :Chapter 09
01:13:20.146 : :Chapter 10
01:19:58.711 : :Chapter 11
01:27:23.071 : :Chapter 12

Скриншоты



_________________
[Торрент-статистика]
[Профиль]  [ЛС] 
Показать сообщения:    
Ответить на тему

Текущее время: Сегодня 02:31

Часовой пояс: GMT + 4



Вы не можете начинать темы
Вы не можете отвечать на сообщения
Вы не можете редактировать свои сообщения
Вы не можете удалять свои сообщения
Вы не можете голосовать в опросах
Вы не можете прикреплять файлы к сообщениям
Вы не можете скачивать файлы