Большой выстрел / Большой взрыв The Big Bang (Тони Крантц / Tony Krantz)[2011 г., Боевик, триллер, BDRip 720p] MVO (СТС)+DVO (Пиратская Студия)+AVO (zamez)+Original

Ответить на тему
 
Автор
Сообщение

awk05 ®

Пол:

Стаж: 8 лет 9 месяцев

Сообщений: 1334

Репутация: 278 [+] [-]

Откуда: Западная Украина Ривне

Пост 04-Май-2014 18:38

[Цитировать] 

-- Большой выстрел / Большой взрыв / The Big Bang-- Год выхода: 2011
Жанр: Боевик, триллер
Страна: США
Продолжительность: 01:41:12
Перевод: Профессиональный многоголосый закадровый (СТС)+Профессиональное (двухголосое) (Пиратская Студия) +Авторское (одноголосое) (zamez)
Субтитры: Russian, English--Режиссер: Тони Крантц / Tony Krantz--В ролях: Антонио Бандерас (Ned Cruz), Томас Кречман (Frizer), Уильям Фихтнер (Poley), Сиенна Гиллори (Julie Kestral /Lexie Persimmon), Делрой Линдо (Skeres), Отем Ризер (Fay Neman), Джеймс Ван Дер Бик (Adam Nova), Сэм Эллиотт (Simon Kestral), Джимми Симпсон (Niels Geck), Билл Дьюк (Drummer)--О фильме: Работа стриптизершей - опасное занятие. Помимо голодных взглядов мужчин можно заиметь более серьезные проблемы. Частный детектив, главный герой фильма, замечает странную тенденцию. Во время поисков пропавшей девушки всех, с кем он общался, находят впоследствии мертвыми. Почему так происходит и какую тайну не хотят раскрыть похитители? Все становится более запутанным, когда детектив находит очередной труп...--Качество видео:BDRip 720p
Формат видео: MKV
Видео кодек: AVC (High@L4.1)
Аудио кодек: AC3, DTS
Видео: 1280x720 (16:9), 23,976 кадра/сек, 7 500 Кбит/сек, (0.339 бит/пиксели*кадры)
Аудио #1: AC-3, 48.0 KHz, 2 ch, 192 Kbps, CBR [RUS]
Аудио #2: AC-3, 48.0 KHz, 6 ch, 384 Kbps, CBR [RUS]
Аудио #3: DTS, 48.0 KHz, 6 ch, 1 510 Kbps, CBR [RUS]
Аудио #4: DTS, 48.0 KHz, 6 ch, 1 510 Kbps, CBR [ENG]-- --

Тех. данные (MI)

Общее
The.Big.Bang.2011.Blu.Ray.720p.CINEMANIA.mkv
Формат : Matroska
Версия формата : Version 4 / Version 2
Размер файла : 7,84 Гбайт
Продолжительность : 1 ч. 41 м.
Общий поток : 11,1 Мбит/сек
Название фильма : Release Group CINEMANIA
Дата кодирования : UTC 2014-05-03 18:01:57
Программа кодирования : mkvmerge v6.9.1 ('Blue Panther') 64bit built on Apr 18 2014 18:23:38
Библиотека кодирования : libebml v1.3.0 + libmatroska v1.4.1
Видео
Идентификатор : 1
Формат : AVC
Формат/Информация : Advanced Video Codec
Профиль формата : High@L4.1
Параметр CABAC формата : Да
Параметр ReFrames формата : 9 кадров
Идентификатор кодека : V_MPEG4/ISO/AVC
Продолжительность : 1 ч. 41 м.
Битрейт : 7500 Кбит/сек
Ширина : 1280 пикселей
Высота : 720 пикселей
Соотношение сторон : 16:9
Режим частоты кадров : Постоянный
Частота кадров : 23,976 кадра/сек
Цветовое пространство : YUV
Субдискретизация насыщенности : 4:2:0
Битовая глубина : 8 бит
Тип развёртки : Прогрессивная
Бит/(Пиксели*Кадры) : 0.339
Размер потока : 5,14 Гбайт (66%)
Заголовок : Release Group CINEMANIA
Библиотека кодирования : x264 core 114 r1900 60ef1f8
Настройки программы : cabac=1 / ref=9 / deblock=1:-3:-3 / analyse=0x3:0x113 / me=umh / subme=9 / psy=1 / psy_rd=0.80:0.00 / mixed_ref=1 / me_range=32 / chroma_me=1 / trellis=1 / 8x8dct=1 / cqm=0 / deadzone=21,11 / fast_pskip=0 / chroma_qp_offset=-2 / threads=9 / sliced_threads=0 / nr=0 / decimate=0 / interlaced=0 / constrained_intra=0 / bframes=6 / b_pyramid=2 / b_adapt=2 / b_bias=0 / direct=1 / weightb=1 / open_gop=0 / weightp=2 / keyint=250 / keyint_min=23 / scenecut=40 / intra_refresh=0 / rc_lookahead=40 / rc=2pass / mbtree=1 / bitrate=7500 / ratetol=1.0 / qcomp=0.60 / qpmin=0 / qpmax=69 / qpstep=4 / cplxblur=20.0 / qblur=0.5 / ip_ratio=1.40 / aq=1:0.80
Язык : English
Default : Да
Forced : Нет
Аудио #1
Идентификатор : 2
Формат : AC-3
Формат/Информация : Audio Coding 3
Расширение режима : CM (complete main)
Параметр Endianness формата : Big
Идентификатор кодека : A_AC3
Продолжительность : 1 ч. 41 м.
Вид битрейта : Постоянный
Битрейт : 192 Кбит/сек
Каналы : 2 канала
Расположение каналов : Front: L R
Частота : 48,0 КГц
Битовая глубина : 16 бит
Метод сжатия : С потерями
Размер потока : 139 Мбайт (2%)
Язык : Russian
Default : Да
Forced : Да
Аудио #2
Идентификатор : 3
Формат : AC-3
Формат/Информация : Audio Coding 3
Расширение режима : CM (complete main)
Параметр Endianness формата : Big
Идентификатор кодека : A_AC3
Продолжительность : 1 ч. 41 м.
Вид битрейта : Постоянный
Битрейт : 384 Кбит/сек
Каналы : 6 каналов
Расположение каналов : Front: L C R, Side: L R, LFE
Частота : 48,0 КГц
Битовая глубина : 16 бит
Метод сжатия : С потерями
Задержка видео : 27 мс.
Размер потока : 278 Мбайт (3%)
Заголовок : Пиратская Студия
Язык : Russian
Default : Нет
Forced : Нет
Аудио #3
Идентификатор : 4
Формат : DTS
Формат/Информация : Digital Theater Systems
Режим : 16
Параметр Endianness формата : Big
Идентификатор кодека : A_DTS
Продолжительность : 1 ч. 41 м.
Вид битрейта : Постоянный
Битрейт : 1510 Кбит/сек
Каналы : 6 каналов
Расположение каналов : Front: L C R, Side: L R, LFE
Частота : 48,0 КГц
Битовая глубина : 24 бит
Метод сжатия : С потерями
Размер потока : 1,07 Гбайт (14%)
Заголовок : zamez
Язык : Russian
Default : Нет
Forced : Нет
Аудио #4
Идентификатор : 5
Формат : DTS
Формат/Информация : Digital Theater Systems
Режим : 16
Параметр Endianness формата : Big
Идентификатор кодека : A_DTS
Продолжительность : 1 ч. 41 м.
Вид битрейта : Постоянный
Битрейт : 1509 Кбит/сек
Каналы : 6 каналов
Расположение каналов : Front: L C R, Side: L R, LFE
Частота : 48,0 КГц
Битовая глубина : 24 бит
Метод сжатия : С потерями
Задержка видео : 11 мс.
Размер потока : 1,07 Гбайт (14%)
Язык : English
Default : Нет
Forced : Нет
Текст #1
Идентификатор : 6
Формат : UTF-8
Идентификатор кодека : S_TEXT/UTF8
Идентификатор кодека/Информация : UTF-8 Plain Text
Заголовок : lingua.pura
Язык : Russian
Default : Нет
Forced : Нет
Текст #2
Идентификатор : 7
Формат : UTF-8
Идентификатор кодека : S_TEXT/UTF8
Идентификатор кодека/Информация : UTF-8 Plain Text
Язык : English
Default : Нет
Forced : Нет
Меню
00:00:00.000 : en:00:00:00.000
00:10:42.642 : en:00:10:42.642
00:23:24.403 : en:00:23:24.403
00:37:31.249 : en:00:37:31.249
00:49:49.403 : en:00:49:49.403
00:58:30.507 : en:00:58:30.507
01:09:47.183 : en:01:09:47.183
01:16:04.560 : en:01:16:04.560
01:26:17.589 : en:01:26:17.589
01:36:54.809 : en:01:36:54.809

Скриншоты


_________________
[Торрент-статистика]
[Профиль]  [ЛС] 
Показать сообщения:    
Ответить на тему

Текущее время: Сегодня 11:54

Часовой пояс: GMT + 4



Вы не можете начинать темы
Вы не можете отвечать на сообщения
Вы не можете редактировать свои сообщения
Вы не можете удалять свои сообщения
Вы не можете голосовать в опросах
Вы не можете прикреплять файлы к сообщениям
Вы не можете скачивать файлы