Секс после детей / Sex After Kids (Джереми Лалонд / Jeremy Lalonde) [2013 г., комедия, WEB-DL 720p] DVO НТВ+

Ответить на тему
 
Автор
Сообщение

awk05 ®

Пол:

Стаж: 8 лет 10 месяцев

Сообщений: 1334

Репутация: 278 [+] [-]

Откуда: Западная Украина Ривне

Пост 03-Май-2014 12:58

[Цитировать] 

--Секс после детей / Sex After Kids-- Год выхода: 2013
Выпущено: Канада
Жанр: комедия
Продолжительность: 01:46:27
Озвучивание: Двухголосый закадровый, профессиональный [НТВ+]
Субтитры: отсутствуют--Режиссер: Джереми Лалонд / Jeremy Lalonde--В ролях: Пол Амос, Шеннон Бекнер, Кэти Боланд, Кристин Бут, Джей Бразо, Аманда Бругел, Эннис Эсмер, Кейт Хьюлетт, Кристен Холден-Рид, Кристин Хорн--О фильме: Сюжет фильма рассказывает о том, как меняется жизнь молодых семейных пар, после того, как у них появляется ребенок. Создав семью, молодые супруги очень часто мечтают о том, чтобы у них как можно быстрее появился малыш, но когда этот момент наступает, их жизнь меняется самым кардинальным образом. Новый член семьи требует к себе постоянного внимания родителей, которые уже не могут принадлежать только друг другу. Молодые мамы постепенно превращаются из красивых и успешных женщин в замученных домохозяек, погруженных в постоянные бытовые хлопоты. Их жизнь полностью подчиняет себе малыш, а супруг отходит на второй план, как и интимные отношения с ним...--Качество видео:WEB-DL 720p
Формат видео: MKV
Видео кодек: AVC (High@L4.0)
Аудио кодек: AC3
Видео: 1280x720 (16:9), 23,976 кадра/сек, 4 100 Кбит/сек, (0.186 бит/пиксели*кадры)
Аудио 1: 2 канала Front: L R, 48,0 КГц, 192 Кбит/сек, 16 бит CBR[RUS]
Аудио 2: 6 каналов Front: L C R, Side: L R, LFE, 48,0 КГц, 384 Кбит/сек, 16 бит CBR [ENG]-- --

Тех. данные (MI)

Общее
Sex.After.Kids.2013.WEB-DL.720p.CINEMANIA.mkv
Формат : Matroska
Версия формата : Version 4 / Version 2
Размер файла : 3,44 Гбайт
Продолжительность : 1 ч. 46 м.
Общий поток : 4630 Кбит/сек
Название фильма : Release Group CINEMANIA
Дата кодирования : UTC 2014-05-02 22:26:39
Программа кодирования : mkvmerge v6.9.1 ('Blue Panther') 64bit built on Apr 18 2014 18:23:38
Библиотека кодирования : libebml v1.3.0 + libmatroska v1.4.1
Видео
Идентификатор : 1
Формат : AVC
Формат/Информация : Advanced Video Codec
Профиль формата : High@L4.0
Параметр CABAC формата : Да
Параметр ReFrames формата : 4 кадра
Идентификатор кодека : V_MPEG4/ISO/AVC
Продолжительность : 1 ч. 46 м.
Битрейт : 4100 Кбит/сек
Ширина : 1280 пикселей
Высота : 720 пикселей
Соотношение сторон : 16:9
Режим частоты кадров : Постоянный
Частота кадров : 23,976 кадра/сек
Цветовое пространство : YUV
Субдискретизация насыщенности : 4:2:0
Битовая глубина : 8 бит
Тип развёртки : Прогрессивная
Бит/(Пиксели*Кадры) : 0.186
Размер потока : 2,95 Гбайт (86%)
Заголовок : Release Group CINEMANIA
Библиотека кодирования : x264 core 130 r2273 b3065e6
Настройки программы : cabac=1 / ref=4 / deblock=1:0:0 / analyse=0x3:0x113 / me=umh / subme=8 / psy=1 / psy_rd=1.00:0.00 / mixed_ref=1 / me_range=16 / chroma_me=1 / trellis=1 / 8x8dct=1 / cqm=0 / deadzone=21,11 / fast_pskip=1 / chroma_qp_offset=-2 / threads=12 / lookahead_threads=2 / sliced_threads=0 / nr=0 / decimate=1 / interlaced=0 / bluray_compat=0 / constrained_intra=0 / bframes=3 / b_pyramid=2 / b_adapt=2 / b_bias=0 / direct=3 / weightb=1 / open_gop=0 / weightp=2 / keyint=240 / keyint_min=24 / scenecut=40 / intra_refresh=0 / rc_lookahead=50 / rc=abr / mbtree=1 / bitrate=4100 / ratetol=1.0 / qcomp=0.60 / qpmin=0 / qpmax=69 / qpstep=4 / vbv_maxrate=25000 / vbv_bufsize=31250 / nal_hrd=none / ip_ratio=1.40 / aq=1:1.00
Язык : English
Default : Да
Forced : Нет
Основные цвета : BT.709
Характеристики трансфера : BT.709
Коэффициенты матрицы : BT.709
Аудио #1
Идентификатор : 2
Формат : AC-3
Формат/Информация : Audio Coding 3
Расширение режима : CM (complete main)
Параметр Endianness формата : Big
Идентификатор кодека : A_AC3
Продолжительность : 1 ч. 46 м.
Вид битрейта : Постоянный
Битрейт : 192 Кбит/сек
Каналы : 2 канала
Расположение каналов : Front: L R
Частота : 48,0 КГц
Битовая глубина : 16 бит
Метод сжатия : С потерями
Размер потока : 146 Мбайт (4%)
Заголовок : Нтв+
Язык : Russian
Default : Да
Forced : Да
Аудио #2
Идентификатор : 3
Формат : AC-3
Формат/Информация : Audio Coding 3
Расширение режима : CM (complete main)
Параметр Endianness формата : Big
Идентификатор кодека : A_AC3
Продолжительность : 1 ч. 46 м.
Вид битрейта : Постоянный
Битрейт : 384 Кбит/сек
Каналы : 6 каналов
Расположение каналов : Front: L C R, Side: L R, LFE
Частота : 48,0 КГц
Битовая глубина : 16 бит
Метод сжатия : С потерями
Размер потока : 292 Мбайт (8%)
Язык : English
Default : Нет
Forced : Нет

Скриншоты


_________________
[Торрент-статистика]
[Профиль]  [ЛС] 
Показать сообщения:    
Ответить на тему

Текущее время: Сегодня 03:18

Часовой пояс: GMT + 4



Вы не можете начинать темы
Вы не можете отвечать на сообщения
Вы не можете редактировать свои сообщения
Вы не можете удалять свои сообщения
Вы не можете голосовать в опросах
Вы не можете прикреплять файлы к сообщениям
Вы не можете скачивать файлы