Помпеи / Pompeii (Пол У. С. Андерсон / Paul W.S. Anderson)[2014., Боевик, драма, мелодрама, приключения, BDRip 720p] DUB iTunes

Ответить на тему
 
Автор
Сообщение

awk05 ®

Пол:

Стаж: 4 года 5 месяцев

Сообщений: 1352

Репутация: 275 [+] [-]

Откуда: Западная Украина Ривне

Пост 03-Май-2014 12:33

[Цитировать] 

--Помпеи / Pompeii
«Некоторые истории пишутся кровью»
-- Год выпуска: 2014
Производство: США, Германия, Канада / Constantin Film Produktion GmbH, Don Carmody Productions, FilmDistrict, Impact Pictures
Жанр: Боевик, драма, мелодрама, приключения
Продолжительность: 01:44:59
Язык: Русский, английский
Перевод: Дублированный [iTunes]
Субтитры: Английский--Режиссер: Пол У. С. Андерсон / Paul W.S. Anderson--Актеры: Кит Харингтон (Milo), Эмили Браунинг (Cassia), Кифер Сазерленд (Corvus), Адевале Акинойе-Агбаже (Atticus), Джаред Харрис (Severus), Кэрри-Энн Мосс (Aurelia), Джессика Лукас (Ariadne), Саша Ройз (Proculus), Джо Пинг (Graecus), Карри Грэм (Bellator), ...--Описание фильма: История любви раба Майло и благородной Кассии, обрученной с римским сенатором, на фоне извержения Везувия, которое навсегда стерло с лица земли древнеримский город Помпеи…--Дата мировой премьеры: 18 февраля 2014
Дата российской премьеры: 19 февраля 2014, «Парадиз»
Дата выхода DVD релиза: 20 мая 2014, «Парадиз / Активижен»
Дата выхода Blu-Ray релиза: 20 мая 2014, «Парадиз / Активижен»--Качество видео:BDRip 720p
Формат видео: MKV
Видео кодек: AVC (High@L4.1)
Аудио кодек: AC3
Видео: 1280x534 (2,40:1), 23,976 кадра/сек, 7 669 Кбит/сек, (0.468 бит/пиксели*кадры)
Аудио 1: AC3, 6 каналов Front: L C R, Side: L R, LFE, 48,0 КГц, 384 Кбит/сек, 16 бит CBR [RUS]
Аудио 2: AC3, 6 каналов Front: L C R, Side: L R, LFE, 48,0 КГц, 640 Кбит/сек, 16 бит CBR[ENG]-- --

Тех. данные (MI)

Общее
Уникальный идентификатор : 213002145351067018331122685085714647271 (0xA03EB893216CA6FAA916956809CE88E7)
Полное имя : K:Pompeii.2014.720p.BluRay.DD5.1.x264.Rus.Eng-DON.mkv
Формат : Matroska
Версия формата : Version 4 / Version 2
Размер файла : 6,50 Гбайт
Продолжительность : 1 ч. 44 м.
Общий поток : 8869 Кбит/сек
Дата кодирования : UTC 2014-05-12 19:27:21
Программа кодирования : mkvmerge v6.5.0 ('Isn't she lovely') built on Oct 20 2013 12:50:05
Библиотека кодирования : libebml v1.3.0 + libmatroska v1.4.1
Видео
Идентификатор : 1
Формат : AVC
Формат/Информация : Advanced Video Codec
Профиль формата : High@L4.1
Параметр CABAC формата : Да
Параметр ReFrames формата : 12 кадров
Идентификатор кодека : V_MPEG4/ISO/AVC
Продолжительность : 1 ч. 44 м.
Битрейт : 7669 Кбит/сек
Ширина : 1280 пикселей
Высота : 534 пикселя
Соотношение сторон : 2,40:1
Режим частоты кадров : Постоянный
Частота кадров : 23,976 кадра/сек
Цветовое пространство : YUV
Субдискретизация насыщенности : 4:2:0
Битовая глубина : 8 бит
Тип развёртки : Прогрессивная
Бит/(Пиксели*Кадры) : 0.468
Размер потока : 5,62 Гбайт (86%)
Библиотека кодирования : x264 core 142 r2409+42 04be48a tMod [8-bit@all X86_64]
Настройки программы : cabac=1 / ref=12 / deblock=1:-3:-3 / analyse=0x3:0x133 / me=tesa / subme=10 / psy=1 / fade_compensate=0.00 / psy_rd=0.90:0.00 / mixed_ref=1 / me_range=32 / chroma_me=1 / trellis=2 / 8x8dct=1 / cqm=0 / deadzone=21,11 / fast_pskip=0 / chroma_qp_offset=-2 / threads=12 / lookahead_threads=2 / sliced_threads=0 / nr=0 / decimate=1 / interlaced=0 / bluray_compat=0 / constrained_intra=0 / fgo=0 / bframes=8 / b_pyramid=2 / b_adapt=2 / b_bias=0 / direct=3 / weightb=1 / open_gop=0 / weightp=2 / keyint=241 / keyint_min=23 / scenecut=40 / intra_refresh=0 / rc_lookahead=60 / rc=crf / mbtree=0 / crf=16.8000 / qcomp=0.65 / qpmin=0:0:0 / qpmax=69:69:69 / qpstep=4 / vbv_maxrate=50000 / vbv_bufsize=62500 / crf_max=0.0 / nal_hrd=none / filler=0 / ip_ratio=1.40 / pb_ratio=1.30 / aq=4:0.90 / aq-sensitivity=10.00 / aq-factor=1.00:1.00:1.00 / aq2=0 / aq3=0 / zones=40093,41986,q=15/48193,75229,q=15/97721,132342,q=15/140768,151031,q=28
Язык : English
Default : Да
Forced : Нет
Аудио #1
Идентификатор : 2
Формат : AC-3
Формат/Информация : Audio Coding 3
Расширение режима : CM (complete main)
Параметр Endianness формата : Big
Идентификатор кодека : A_AC3
Продолжительность : 1 ч. 44 м.
Вид битрейта : Постоянный
Битрейт : 384 Кбит/сек
Каналы : 6 каналов
Расположение каналов : Front: L C R, Side: L R, LFE
Частота : 48,0 КГц
Битовая глубина : 16 бит
Метод сжатия : С потерями
Размер потока : 288 Мбайт (4%)
Язык : Russian
Default : Да
Forced : Нет
Аудио #2
Идентификатор : 3
Формат : AC-3
Формат/Информация : Audio Coding 3
Расширение режима : CM (complete main)
Параметр Endianness формата : Big
Идентификатор кодека : A_AC3
Продолжительность : 1 ч. 44 м.
Вид битрейта : Постоянный
Битрейт : 640 Кбит/сек
Каналы : 6 каналов
Расположение каналов : Front: L C R, Side: L R, LFE
Частота : 48,0 КГц
Битовая глубина : 16 бит
Метод сжатия : С потерями
Размер потока : 481 Мбайт (7%)
Язык : English
Default : Нет
Forced : Нет
Текст
Идентификатор : 4
Формат : UTF-8
Идентификатор кодека : S_TEXT/UTF8
Идентификатор кодека/Информация : UTF-8 Plain Text
Язык : English
Default : Нет
Forced : Нет
Меню
00:00:00.000 : :00:00:00.000
00:05:27.077 : :00:05:27.077
00:09:51.674 : :00:09:51.674
00:15:58.457 : :00:15:58.457
00:19:52.858 : :00:19:52.858
00:26:45.103 : :00:26:45.103
00:32:36.621 : :00:32:36.621
00:38:18.838 : :00:38:18.838
00:47:35.811 : :00:47:35.811
00:52:17.718 : :00:52:17.718
01:03:25.218 : :01:03:25.218
01:09:02.930 : :01:09:02.930
01:17:27.309 : :01:17:27.309
01:23:46.521 : :01:23:46.521
01:30:04.149 : :01:30:04.149
01:35:08.119 : :01:35:08.119

Знаете ли Вы, что...

* Для съемок крупномасштабных сцен оператор Глен МакФерсон создал оригинальную конструкцию: он прикрепил камеру к вертолету с дистанционным управлением, который поднимался на высоту свыше 60 метров. Таким образом, создатели получили уникальные кадры, позволяющие зрителю увидеть историю и трагедию Помпей в масштабе места и времени.
* Один из крупнейших городов Римской империи Помпеи с его величественными храмами, аренами и банями был воссоздан благодаря грандиозным декорациям. Всего лишь треть антуража фильма сделана с помощью компьютерной графики.
* Во время подготовки к съемкам, чтобы как можно более точно воссоздать сцены катастрофы 2000-летней давности, создатели тщательно изучили видеосъемки реальных природных явлений — землетрясений, извержений вулканов, смерчей.
* По словам продюсера Джереми Болта, создатели приложили максимум сил, чтобы сохранить в фильме «Помпеи» историческую правду. Да, основные герои вымышленные, но их образы и имена соответствуют реальным людям того исторического периода. Точное время, хронология и обстоятельства извержения Везувия воссозданы настолько правдиво, насколько это возможно в кино.

Скриншоты



_________________
[Торрент-статистика]
[Профиль]  [ЛС] 
Показать сообщения:    
Ответить на тему

Текущее время: Сегодня 15:33

Часовой пояс: GMT + 4



Вы не можете начинать темы
Вы не можете отвечать на сообщения
Вы не можете редактировать свои сообщения
Вы не можете удалять свои сообщения
Вы не можете голосовать в опросах
Вы не можете прикреплять файлы к сообщениям
Вы не можете скачивать файлы