Перекрестие / Crosshairs ( Ник Ленц / Nick Lentz) [2013 г., Боевик, триллер, драма, HDTV 1080i]

Ответить на тему
 
Автор
Сообщение

awk05 ®

Пол:

Стаж: 4 года 5 месяцев

Сообщений: 1352

Репутация: 275 [+] [-]

Откуда: Западная Украина Ривне

Пост 27-Апр-2014 22:14

[Цитировать] 

--Перекрестие / Crosshairs
«Убивать легко. Жить трудно»
-- Год выпуска: 2013 г.
Страна: США, Burbank Movie Company
Жанр: Боевик, триллер, драма
Продолжительность: 01:55:43
Перевод: Профессиональный многоголосый
Cубтитры: нет--Режиссер: Ник Ленц / Nick Lentz--В ролях: Роберт Сиэй, Марк Ролстон, Том Сайзмор, Джефф Парис, Коди Китчен, Люк Эдвардс, Мишель Ван Дер Уотер, Сильви Кас, Зитто Казанн, Бад Уотсон, Кэролин Стотс, Кристина Кулиш, Ребекка Беренс, Дрю Брилакис, Леви Филер, Грант Мэтис, Остин Мелроз--Описание: Джек Верлен — талантливый убийца, и он не видит ничего зазорного в своей профессии. Во время выполнения заказа на ликвидацию продюсера порнофильмов, изуродовавшего одну иммигрантку, он получает выгодное предложение от высокопоставленного банкира, от которого совсем не просто отказаться. А на следующий день на пороге его дома неожиданно появляется его бывшая, которая обращается к бывшему бойфренду с необычной просьбой…--Качество видео:HDTV (1080i)
Формат видео: MPEG-TS
Видео кодек: AVC (High@L4.0)
Аудио кодек: AC3
Видео: AVC, 1920x1080 (16:9), 25.000 fps, 6 569 Kbps (0.127 bit/pixel)
Аудио: AC-3, 48.0 KHz, 6 ch, 448 Kbps, CBR [RUS] -- --

MediaInfo

Общее
Идентификатор : 1 (0x1)
Полное имя : E:\тест\Perekrestie.2013.HDTV(1080i).RG.ClubTorrent.Soppot.ts
Формат : MPEG-TS
Размер файла : 5,80 Гбайт
Продолжительность : 1 ч. 52 м.
Режим общего битрейта : Переменный
Общий поток : 7386 Кбит/сек
Видео
Идентификатор : 321 (0x141)
Идентификатор меню : 1 (0x1)
Формат : AVC
Формат/Информация : Advanced Video Codec
Профиль формата : High@L4.0
Параметр CABAC формата : Да
Параметр ReFrames формата : 3 кадра
Идентификатор кодека : 27
Продолжительность : 1 ч. 52 м.
Битрейт : 6569 Кбит/сек
Ширина : 1920 пикселей
Высота : 1080 пикселей
Соотношение сторон : 16:9
Частота кадров : 25,000 кадров/сек
Стандарт вещания : Component
Цветовое пространство : YUV
Субдискретизация насыщенности : 4:2:0
Битовая глубина : 8 бит
Тип развёртки : Чересстрочная
Порядок развёртки : Верхнее поле первое
Бит/(Пиксели*Кадры) : 0.127
Размер потока : 5,16 Гбайт (89%)
Основные цвета : BT.709
Характеристики трансфера : BT.709
Коэффициенты матрицы : BT.709
Аудио
Идентификатор : 401 (0x191)
Идентификатор меню : 1 (0x1)
Формат : AC-3
Формат/Информация : Audio Coding 3
Расширение режима : CM (complete main)
Параметр Endianness формата : Big
Идентификатор кодека : 6
Продолжительность : 1 ч. 52 м.
Вид битрейта : Постоянный
Битрейт : 448 Кбит/сек
Каналы : 6 каналов
Расположение каналов : Front: L C R, Side: L R, LFE
Частота : 48,0 КГц
Битовая глубина : 16 бит
Метод сжатия : С потерями
Размер потока : 361 Мбайт (6%)
Язык : Russian

Скриншоты


_________________
[Торрент-статистика]
[Профиль]  [ЛС] 
Показать сообщения:    
Ответить на тему

Текущее время: Сегодня 15:36

Часовой пояс: GMT + 4



Вы не можете начинать темы
Вы не можете отвечать на сообщения
Вы не можете редактировать свои сообщения
Вы не можете удалять свои сообщения
Вы не можете голосовать в опросах
Вы не можете прикреплять файлы к сообщениям
Вы не можете скачивать файлы