Тайное влечение / Adore / Perfect Mothers (Анн Фонтен / Anne Fontaine) [2013 г., Драма, BDRip 720p]

Ответить на тему
 
Автор
Сообщение

awk05 ®

Пол:

Стаж: 8 лет 9 месяцев

Сообщений: 1334

Репутация: 278 [+] [-]

Откуда: Западная Украина Ривне

Пост 26-Апр-2014 00:13

[Цитировать] 

--Тайное влечение / Adore / Perfect Mothers -- Год выпуска: 2013
Производство: Австралия, Франция, Gaumont, Screen Australia, Ciné@
Жанр: Драма
Продолжительность: 01:51:15
Перевод: Дублированное [Чистый звук]
Субтитры: Вшитые отключаемые
Язык субтитров: Русский, английский--Режиссер: Анн Фонтен / Anne Fontaine--Актеры: Робин Райт, Наоми Уоттс, Завьер Сэмюэл, Бен Мендельсон, Софи Лоу, Джеймс Фрешвилл, Джессика Тоуви, Гари Свит, Элисон Стэнден, Дэйн Иде--Описание фильма: Главные героини фильма — Лил и Роз — две давние подруги, которые влюбляются в сыновей друг друга. Из-за страха быть осуждёнными обществом, женщины скрывают свои отношения в тайне на протяжении нескольких лет до тех пор, пока их секреты не становятся достоянием общественности. Это открытие не только грозит разрушить жизни обеих подруг, но и ставит перед сложным выбором их сыновей, которые должны решить: жить ли им по проторенной дороге или же следовать своим истинным желаниям.--Качество видео:BDRip 720p
Формат видео: MKV
Видео кодек: AVC (High@L4.1)
Аудио кодек: AC3
Видео: AVC, 1280x536 (2.35:1), 24.000 fps, 4 500 Kbps (0.273 bit/pixel)
Аудио 1: AC-3, 48.0 KHz, 2 ch, 192 Kbps, CBR [RUS]
Аудио 2: AC-3, 48.0 KHz, 6 ch, 640 Kbps, CBR [ENG]-- --

MediaInfo

Общее
Уникальный идентификатор : 249446145568109583712464331806775893611 (0xBBA9948325E49853B90760938A4ADE6B)
Полное имя : D:\Фильмы\Tajnoe.vlechenie.2013.BDRip.720p.mkv
Формат : Matroska
Версия формата : Version 4 / Version 2
Размер файла : 4,14 Гбайт
Продолжительность : 1 ч. 51 м.
Общий поток : 5334 Кбит/сек
Название фильма : Release Group [SPAM]
Дата кодирования : UTC 2014-04-24 20:30:42
Программа кодирования : mkvmerge v6.9.1 ('Blue Panther') 64bit built on Apr 18 2014 18:23:38
Библиотека кодирования : libebml v1.3.0 + libmatroska v1.4.1
Видео
Идентификатор : 1
Формат : AVC
Формат/Информация : Advanced Video Codec
Профиль формата : High@L4.1
Параметр CABAC формата : Да
Параметр ReFrames формата : 12 кадров
Идентификатор кодека : V_MPEG4/ISO/AVC
Продолжительность : 1 ч. 51 м.
Битрейт : 4500 Кбит/сек
Ширина : 1280 пикселей
Высота : 536 пикселей
Соотношение сторон : 2,40:1
Режим частоты кадров : Постоянный
Частота кадров : 24,000 кадра/сек
Цветовое пространство : YUV
Субдискретизация насыщенности : 4:2:0
Битовая глубина : 8 бит
Тип развёртки : Прогрессивная
Бит/(Пиксели*Кадры) : 0.273
Размер потока : 3,42 Гбайт (82%)
Заголовок : Release Group [SPAM]
Библиотека кодирования : x264 core 135 r2345kMod f0c1c53
Настройки программы : cabac=1 / ref=12 / deblock=1:-3:-3 / analyse=0x3:0x133 / me=umh / subme=11 / psy=1 / fade_compensate=0.00 / psy_rd=1.05:0.00 / mixed_ref=1 / me_range=64 / chroma_me=1 / trellis=2 / 8x8dct=1 / cqm=0 / deadzone=21,11 / fast_pskip=0 / chroma_qp_offset=-2 / threads=12 / lookahead_threads=2 / sliced_threads=0 / nr=0 / decimate=0 / interlaced=0 / bluray_compat=0 / constrained_intra=0 / bframes=8 / b_pyramid=2 / b_adapt=2 / b_bias=0 / direct=3 / weightb=1 / open_gop=0 / weightp=2 / keyint=250 / keyint_min=24 / scenecut=40 / intra_refresh=0 / rc_lookahead=40 / rc=2pass / mbtree=0 / bitrate=4500 / ratetol=1.0 / qcomp=0.70 / qpmin=0 / qpmax=69 / qpstep=4 / cplxblur=20.0 / qblur=0.5 / vbv_maxrate=50000 / vbv_bufsize=62500 / nal_hrd=none / ip_ratio=1.30 / pb_ratio=1.20 / aq=1:0.70
Язык : English
Default : Да
Forced : Нет
Основные цвета : BT.709
Характеристики трансфера : BT.709
Коэффициенты матрицы : BT.709
Аудио #1
Идентификатор : 2
Формат : AC-3
Формат/Информация : Audio Coding 3
Расширение режима : CM (complete main)
Параметр Endianness формата : Big
Идентификатор кодека : A_AC3
Продолжительность : 1 ч. 51 м.
Вид битрейта : Постоянный
Битрейт : 192 Кбит/сек
Каналы : 2 канала
Расположение каналов : Front: L R
Частота : 48,0 КГц
Битовая глубина : 16 бит
Метод сжатия : С потерями
Размер потока : 153 Мбайт (4%)
Заголовок : Дубляж (Чистый Звук)
Язык : Russian
Default : Да
Forced : Да
Аудио #2
Идентификатор : 3
Формат : AC-3
Формат/Информация : Audio Coding 3
Расширение режима : CM (complete main)
Параметр Endianness формата : Big
Идентификатор кодека : A_AC3
Продолжительность : 1 ч. 51 м.
Вид битрейта : Постоянный
Битрейт : 640 Кбит/сек
Каналы : 6 каналов
Расположение каналов : Front: L C R, Side: L R, LFE
Частота : 48,0 КГц
Битовая глубина : 16 бит
Метод сжатия : С потерями
Размер потока : 509 Мбайт (12%)
Язык : English
Default : Нет
Forced : Нет
Текст #1
Идентификатор : 4
Формат : UTF-8
Идентификатор кодека : S_TEXT/UTF8
Идентификатор кодека/Информация : UTF-8 Plain Text
Заголовок : notabenoid
Язык : Russian
Default : Нет
Forced : Нет
Текст #2
Идентификатор : 5
Формат : UTF-8
Идентификатор кодека : S_TEXT/UTF8
Идентификатор кодека/Информация : UTF-8 Plain Text
Язык : English
Default : Нет
Forced : Нет
Меню
00:00:00.000 : en:00:00:00.000
00:08:27.958 : en:00:08:27.958
00:19:11.292 : en:00:19:11.292
00:26:41.583 : en:00:26:41.583
00:36:58.667 : en:00:36:58.667
00:45:09.500 : en:00:45:09.500
00:55:25.875 : en:00:55:25.875
01:05:14.125 : en:01:05:14.125
01:15:39.833 : en:01:15:39.833
01:24:48.208 : en:01:24:48.208
01:33:30.750 : en:01:33:30.750
01:44:48.625 : en:01:44:48.625

Скриншоты





_________________
[Торрент-статистика]
[Профиль]  [ЛС] 
Показать сообщения:    
Ответить на тему

Текущее время: Сегодня 05:00

Часовой пояс: GMT + 4



Вы не можете начинать темы
Вы не можете отвечать на сообщения
Вы не можете редактировать свои сообщения
Вы не можете удалять свои сообщения
Вы не можете голосовать в опросах
Вы не можете прикреплять файлы к сообщениям
Вы не можете скачивать файлы